Скачать порно через торрент KILL KILALA: Thrilling HC Persecution |A Certain Molestific Mikoto - Express Assault|Miglia Jigokuhen destruction and insult thoroughl UnionPeer.org бесплатно онлайн HD качество

Скачать новое порно 2015, 2014 новинки через торрент UnionPeer.org

Порно торрент бесплатно ЮнионПир.орг

Если у вас наблюдаются проблемы со скриншотами, переходом по ссылками, скачиванием торрентов - проблемы в блокировщике рекламы AdBlock. #хорошегоДня!


Статистика раздачи
Размер:  1.28 GB   |    Зарегистрирован:  3 года 4 месяца   |    .torrent скачан:  787 раз   |   
Раздают:  1  
   
Загрузка...
 
Автор Сообщение

Galfimbul

avatar Galfimbul



Intimate With Haruka - Idol Chikan Train - Express Assault 2nd Car / 春香に逢います アイドル痴漢電車 陵辱急行第2車両

Год производства: 2014 г.
Жанр: Gangbang Facial Blowjob Molestation Outdoor Exposure
Продолжительность: 17:27
Цензура: Есть во всех файлах

Язык: Японский
Озвучка: Оригинальная
Студия: @Oz | DLSite
Описание: OZ представляет "финал сезона" виртуального MOVIE первой серии 3DCG ,
для любителей штурма на девушек в поезде. Наслаждайтесь

Качество видео: GameRip
Разрешение видео: 720p
Формат видео: MPEG
Видео кодек: H.264/AVC
Аудио кодек: MP3
Видео: MPEG4 Video (H264) 1280x720 30fps 2966kbps
Аудио 1: MP3 44100Hz stereo 192kbps
ideo
ID : 0
Format : AVC
Format/Info : Advanced Video Codec
Format profile : Main@L5.1
Format settings, CABAC : Yes
Format settings, ReFrames : 1 frame
Codec ID : H264
Duration : 17mn 27s
Bit rate : 2 967 Kbps
Width : 1 280 pixels
Height : 720 pixels
Display aspect ratio : 16:9
Frame rate : 30.000 fps
Color space : YUV
Chroma subsampling : 4:2:0
Bit depth : 8 bits
Scan type : Progressive
Bits/(Pixel*Frame) : 0.107
Stream size : 370 MiB (94%)

Audio
ID : 1
Format : MPEG Audio
Format version : Version 1
Format profile : Layer 3
Codec ID : 55
Codec ID/Hint : MP3
Duration : 17mn 27s
Bit rate mode : Constant
Bit rate : 192 Kbps
Channel(s) : 2 channels
Sampling rate : 44.1 KHz
Compression mode : Lossy
Stream size : 24.0 MiB (6%)
Alignment : Split accross interleaves
Interleave, duration : 33 ms (1.00 video frame)
Interleave, preload duration : 128 ms

KILL KILALA: Thrilling HC Persecution, Stormy Gangbang Hell / レミリア地獄変 急所破壊徹底陵辱

Год производства: 2014 г.
Жанр: Gangbang Violation Blowjob Humiliation Anal
Продолжительность: 9:51
Цензура: Есть во всех файлах

Озвучка: Оригинальная
Субтитры: Встроенные неотключаемые (хардсаб)

Студия: @oz | DLSite
Описание:
A bashful heroine's pro wrestling torture, hardcore crotch pounding, debased spiral into masochistic bliss.

Качество видео: GameRip
Разрешение видео: 720p
Формат видео: WMV
Видео кодек: Windows Media
Аудио кодек: WMA
Видео: Windows Media Video 9 1280x720 30fps 3000kbps
Аудио 1: WMA 2 44100Hz stereo 96kbp
Video
ID : 1
Format : VC-1
Format profile : MP@HL
Codec ID : WMV3
Codec ID/Info : Windows Media Video 9
Codec ID/Hint : WMV3
Description of the codec : Windows Media Video 9 - Professional
Duration : 9mn 51s
Bit rate mode : Constant
Bit rate : 3 000 Kbps
Width : 1 280 pixels
Height : 720 pixels
Display aspect ratio : 16:9
Frame rate : 30.000 fps
Bit depth : 8 bits
Scan type : Progressive
Compression mode : Lossy
Bits/(Pixel*Frame) : 0.109
Stream size : 212 MiB (99%)
Language : Latvian

Audio
ID : 2
Format : WMA
Format version : Version 2
Codec ID : 161
Codec ID/Info : Windows Media Audio
Description of the codec : Windows Media Audio 9.2 - 96 kbps, 44 kHz, stereo 1-pass CBR
Duration : 9mn 51s
Bit rate mode : Constant
Bit rate : 96.0 Kbps
Channel(s) : 2 channels
Sampling rate : 44.1 KHz
Bit depth : 16 bits
Stream size : 6.77 MiB (3%)

Miglia Jigokuhen destruction and insult thoroughly / レミリア地獄変 急所破壊徹底陵辱

Год производства: 2013 г.
Жанр: tentacles, pregnant women, nipple fuck, Rape
Продолжительность: 7:35
Цензура: Есть во всех файлах

Язык: Японский
Озвучка: Оригинальная
Субтитры: Встроенные неотключаемые (хардсаб)

Студия: @oz | DLSite
Описание: Девушка-вампир из вселенной тохо была поймана демонами

Качество видео: GameRip
Разрешение видео: 480p
Формат видео: WMV
Видео кодек: Windows Media
Аудио кодек: WMA
Видео: Windows Media Video 9 848x480 30fps 4377kbps
Аудио 1: WMA Pro 32000Hz stereo 32kbps
Video
ID : 1
Format : VC-1
Format profile : MP@HL
Codec ID : WMV3
Codec ID/Info : Windows Media Video 9
Codec ID/Hint : WMV3
Description of the codec : Windows Media Video 9
Duration : 7mn 35s
Bit rate mode : Variable
Bit rate : 4 377 Kbps
Width : 848 pixels
Height : 480 pixels
Display aspect ratio : 16:9
Frame rate : 30.000 fps
Bit depth : 8 bits
Scan type : Progressive
Compression mode : Lossy
Bits/(Pixel*Frame) : 0.358
Stream size : 237 MiB (97%)
Language : Latvian

Audio
ID : 2
Format : WMA
Format profile : Pro
Codec ID : 162
Codec ID/Info : Windows Media Audio
Description of the codec : Windows Media Audio 10 Professional - 32 kbps, 32 kHz, 2 channel 16 bit (A/V) 1-pass CBR
Duration : 7mn 35s
Bit rate mode : Constant
Bit rate : 32.0 Kbps
Channel(s) : 2 channels
Sampling rate : 32.0 KHz
Bit depth : 16 bits
Stream size : 1.74 MiB (1%)

A Certain Molestific Mikoto - Express Assault / とある美琴の痴漢電車 陵辱急行
Год производства: 2013 г.
Жанр: Dirty Talk, Uniform, Molestation
Продолжительность: 11:31
Цензура: Есть во всех файлах

Язык: Японский
Озвучка: Оригинальная
Субтитры: Встроенные неотключаемые (хардсаб)

Студия: @oz | DLSite
Описание: Студия @oz как всегда на высоте и сделала ещё одну хорошую игру с которой получился классный GameRip.
Всем фанатам, которым нравится, как на милую девушку нападает толпа голодных до секса в поезде.
Качество видео: GameRip
Формат видео: WMV
Видео кодек: Windows Media
Аудио кодек: WMA
Видео: Windows Media Video 9 848x476 30fps 5105kbps
Аудио 1: WMA Pro 44100Hz stereo 440kbps
Vivid Ishikki At The Beach / ビビッと一色 海水浴 / Яркие Ishikki на пляже
Студия:@OZ | DLLsite| [url=http://цензор/forum/viewtopic.php?t=1702586]Силка на раздачу[/url]

Anegasaki hot spring / 姉ヶ崎温泉 / горячий источник Anegasaki
Студия: @oz | DLSite
Video
ID : 1
Format : VC-1
Format profile : MP@HL
Codec ID : WMV3
Codec ID/Info : Windows Media Video 9
Codec ID/Hint : WMV3
Description of the codec : Windows Media Video 9
Duration : 11mn 31s
Bit rate mode : Variable
Bit rate : 5 106 Kbps
Width : 848 pixels
Height : 476 pixels
Display aspect ratio : 16:9
Frame rate : 30.000 fps
Bit depth : 8 bits
Scan type : Progressive
Compression mode : Lossy
Bits/(Pixel*Frame) : 0.422
Stream size : 421 MiB (92%)
Language : Latvian

Audio
ID : 2
Format : WMA
Format profile : Pro
Codec ID : 162
Codec ID/Info : Windows Media Audio
Description of the codec : Windows Media Audio 10 Professional - 440 kbps, 44 kHz, 2 channel 24 bit (A/V) 1-pass CBR
Duration : 11mn 31s
Bit rate mode : Constant
Bit rate : 440 Kbps
Channel(s) : 2 channels
Sampling rate : 44.1 KHz
Bit depth : 24 bits
Stream size : 36.3 MiB (8%)
Приятного просмотра! Пожалуйста, поддержите раздачу!
Спасибо за Ваши будующие комментарии!

Трекер:  [ 31-Мар-2014 23:15 ]

  

Скачать .torrent

Размер .torrent файла 14 KB


Размер: 1.28 GB
Хэш (hash) релиза: 92b826f59456c5e49599c4760449d47643e6fb10

Еще никто не оставлял запись к записи скачать торрент KILL KILALA: Thrilling HC Persecution |A Certain Molestific Mikoto - Express Assault|Miglia Jigokuhen destruction and insult thoroughl . Будь первым!

!Обратная связь