Скачать порно через торрент Tenioha! Onna no Ko datte Honto wa Ecchi Da yo? Азбука любви! ~Девушки тоже любят развратные штучки? ~ UnionPeer.org бесплатно онлайн HD качество

Скачать новое порно 2015, 2014 новинки через торрент UnionPeer.org

Порно торрент бесплатно ЮнионПир.орг

Если у вас наблюдаются проблемы со скриншотами, переходом по ссылками, скачиванием торрентов - проблемы в блокировщике рекламы AdBlock. #хорошегоДня!


Статистика раздачи
Размер:  1.65 GB   |    Зарегистрирован:  3 года 7 месяцев   |    .torrent скачан:  279 раз   |   
Раздают:  1  
   
Загрузка...
 
Автор Сообщение

Galfimbul

avatar Galfimbul


Tenioha! Onna no Ko datte Honto wa Ecchi Da yo? / てにおはっ! ~女の子だってホントはえっちだよ?~ / Азбука любви! ~Девушки тоже любят развратные штучки? ~

Год производства: 2013 г.
Жанр: Big tits, Footjob, Oral sex, School, Virgin, Harem
Серии: ep. 1-2 of 2
Продолжительность: 2х~15 min + 5 min трейлеры
Цензура: Есть

Озвучка: Японская (Оригинальная)

Автор оригинала: Rootnuko + H
Студия: Rabbit Gate, Mary Jane

Описание RUS: Изуми Хирото и понятия не имел, что может понравиться кому-либо из противоположного пола собственной школы. Посему, когда очаровательная Хибики-сенпай попросила правильно написать его имя на листике бумаги, Изуми даже не посмотрел, что подписывает. А хитрая девушка таким способом вынудила его вступить в «Клуб Любителей Культуры». Слава богу, реальым изучением культуры в клубе никто не занимался. А вот содержимое штанов главного героя вызывало жгучий интерес у его участниц. В первый же вечер в общежитии, Хибики нанесла «визит вежливости» в комнату Хиро, где на собственном, девственном теле поведала ему об истинной причине своего интереса к юноше... ©hentaimag.ru

Описание ENG: Hiroto Izumi in love with his classmate Himekawa Ami. Through secret channels he could get a picture of her in a swimsuit. Farewell lonely evenings! Now what will take your hands! Also, the hero finds out that she is in the Club culture lovers and best friend invited him to start there. Of course, can not miss this chance. But here's the surprise, the club made a few beautiful girls. Hiroto reluctantly decides to follow his dream and secretly spying on Amy. He was once again lucky - he sees a girl panties... but Amy saw where he was looking . Subsequent phrase was quite unexpected:
"Hiroto - kun ... would not want to have sex with you today?" heart was ready to jump out of my chest, finally fulfilled his dream, but what kind of suspicious looks from other girls?" Nothing will happen because if I'm nice to them?

Информационные ссылки: AniDB - MAL - World Art - ХентайМаг

Качество видео: 2x DVD5
Формат видео: DVD Video
Видео кодек: MPEG2
Аудио кодек: AC3
Видео: 720х480, (16:9), 29,970 кадров/сек, ~ 5000 Кбит/сек, NTSC
Аудио: JAP, AC-3, 2 канала, 224 Кбит/сек, 48,0 КГц
Общее
Полное имя : J:\VIDEO_TS\VTS_01_1.VOB
Формат : MPEG-PS
Размер файла : 584 Мбайт
Продолжительность : 20 м.
Общий поток : 4013 Кбит/сек

Видео
Идентификатор : 224 (0xE0)
Формат : MPEG Video
Версия формата : Version 2
Профиль формата : Main@Main
Параметр BVOP формата : Нет
Параметр матрицы формата : Выборочная
Параметр GOP формата : Variable
Продолжительность : 33 мс.
Битрейт : 3709 Кбит/сек
Максимальный битрейт : 8000 Кбит/сек
Ширина : 720 пикселей
Высота : 480 пикселей
Соотношение сторон : 16:9
Частота кадров : 29,970 кадров/сек
Стандарт вещания : NTSC
Цветовое пространство : YUV
Субдискретизация насыщенности : 4:2:0
Битовая глубина : 8 бит
Тип развёртки : Прогрессивная
Порядок развёртки : Верхнее поле первое
Метод сжатия : С потерями
Бит/(Пиксели*Кадры) : 0.358
Размер потока : 15,1 Кбайт (0%)

Аудио
Идентификатор : 189 (0xBD)-128 (0x80)
Формат : AC-3
Формат/Информация : Audio Coding 3
Расширение режима : CM (complete main)
Параметр Endianness формата : Big
Режим смешивания : DVD-Video
Продолжительность : 20 м.
Вид битрейта : Постоянный
Битрейт : 224 Кбит/сек
Каналы : 2 канала
Расположение каналов : Front: L R
Частота : 48,0 КГц
Битовая глубина : 16 бит
Метод сжатия : С потерями
Размер потока : 32,6 Мбайт (6%)

Меню


Трекер:  [ 29-Мар-2014 19:16 ]

  

Скачать .torrent

Размер .torrent файла 17 KB


Размер: 1.65 GB
Хэш (hash) релиза: 98fc46e0a77be4be4711af5889ca2902bf719af2

Торренты, похожие на Tenioha! Onna no Ko datte Honto wa Ecchi Da yo? Азбука любви! ~Девушки тоже любят развратные штучки? ~ скачать торрент

Форум Название Автор Размер S L Добавлен
Хентай | Манга, додзинси, арт и др. ·· [HCG] Tenioha! ~Onna no Ko Datte Honto wa Ecchi da yo?~ / Азбука любви! ~Девушки тоже любят развратные штучки?~ (rootnuko+H) [cen] [School, Outdoor, Anal sex, Pee, Footjob, Trap, Yaoi, Titjob, Virgin, Toys, Stockings, Condom, Swimsuit] [JPG] Galfimbul 444614963424 MB 1 1 1407196609

02:56

5-Авг-14

Хентай | С цензурой ·· Tenioha! Onna no Ko datte Honto wa Ecchi Da yo? / Азбука любви! ~Девушки тоже любят развратные штучки?~ (Rabbit Gate, Mary Jane) (ep. 1-2 of 2) [cen] [2013-2014 г. School, Big tits, Footjob, Oral sex, Virgin, DVDRip] [jap / eng /hun /chin/rus] Galfimbul 293038868279 MB 0 0 1397062389

19:53

9-Апр-14

Хентай | С цензурой ·· Tenioha! Onna no Ko datte Honto wa Ecchi Da yo? / Азбука любви! ~Девушки тоже любят развратные штучки?~ (Rabbit Gate, Mary Jane) (ep. 1-2 of 2) [cen] [2013-2014 г. School, Big tits, Footjob, Oral sex, Virgin, DVDRip] [jap / eng / rus] Galfimbul 397226965379 MB 0 0 1392543051

12:30

16-Фев-14

Хентай | С цензурой ·· Tenioha! Onna no Ko datte Honto wa Ecchi Da yo? / Азбука любви! ~Девушки тоже любят развратные штучки?~ (Rabbit Gate, Mary Jane) (ep. 1-2 of 2) [cen] [2013 г. School, Big tits, Footjob, Oral sex, Virgin, DVDRip] [jap / eng (1) / rus (1)] Galfimbul 376353638359 MB 0 0 1391453923

21:58

3-Фев-14

Хентай | С цензурой ·· Tenioha! Onna no Ko datte Honto wa Ecchi Da yo? / Азбука любви! ~Девушки тоже любят развратные штучки?~ (Rabbit Gate, Mary Jane) (ep. 1-2 of 2) [cen] [2013 г. School, Big tits, Footjob, Oral sex, Virgin, DVDRip] [jap / eng (1) / rus (1)] Galfimbul 376326241359 MB 1 1 1391259572

15:59

1-Фев-14

Хентай | С цензурой ·· Tenioha! Onna no Ko datte Honto wa Ecchi Da yo? / Азбука любви! ~Девушки тоже любят развратные штучки?~ (Rabbit Gate, Mary Jane) (ep. 1) [cen] [2013 г. School, Big tits, Footjob, Oral sex, Virgin, DVDRip] [jap / eng / rus] Galfimbul 197283974188 MB 0 0 1388835976

14:46

4-Янв-14

Хентай | С цензурой ·· Tenioha! Onna no Ko datte Honto wa Ecchi Da yo? / Азбука любви! ~Девушки тоже любят развратные штучки? ~ (Rabbit Gate, Mary Jane) (ep. 1 of 2) [cen] [2013 г., Big tits, Footjob, Oral sex, School, Virgin, DVD5] [jap] Galfimbul 618119989589 MB 0 0 1388086943

22:42

26-Дек-13

Хентай | С цензурой ·· Tenioha! Onna no Ko datte Honto wa Ecchi Da yo? / Азбука любви! ~Девушки тоже любят развратные штучки?~ (Rabbit Gate, Mary Jane) (ep. 1) [cen] [2013 г. School, Big tits, Footjob, Oral sex, Virgin, DVDRip] [jap / eng / rus] LinGr 175481215167 MB 0 0 1385800806

11:40

30-Ноя-13

Хентай | С цензурой ·· Tenioha! Onna no Ko datte Honto wa Ecchi Da yo? / Азбука любви! ~Девушки тоже любят развратные штучки?~ (Rabbit Gate, Mary Jane) (ep. 1) [cen] [2013 г. School, Big tits, Footjob, Oral sex, Virgin, DVDRip] [jap] LinGr 175436419167 MB 0 0 1385239239

23:40

23-Ноя-13

Еще никто не оставлял запись к записи скачать торрент Tenioha! Onna no Ko datte Honto wa Ecchi Da yo? Азбука любви! ~Девушки тоже любят развратные штучки? ~ . Будь первым!

!Обратная связь