Скачать через торрент Любовная песня для одного пилота Toaru Hikuushi e no Koiuta бесплатно Аниме Все серии на русском torrent

Если у вас наблюдаются проблемы со скриншотами, переходом по ссылками, скачиванием торрентов - проблемы в блокировщике рекламы AdBlock. #хорошегоДня!


Статистика раздачи
Размер:  3.28 GB   |    Зарегистрирован:  3 года 5 месяцев   |    .torrent скачан:  17 раз   |   
Раздают:  1  
   
Загрузка...
 
Автор Сообщение

Polarnik

avatar Polarnik


Любовная песня для одного пилота / Toaru Hikuushi e no Koiuta
Страна: Япония
Год выпуска: 2014 г.
Жанр: Приключения
Продолжительность: 12 эп. по 25 мин
Русские субтитры: Dreamers Team
Перевод: DARio
Редактура: Hariton Harko
Лирика: AlenFuns
Перевод от команды: [HUNTA & Fratelli]
Переводчик: Сова
Редактор: Jenia aka Zub
Перевод Песен: Мария Гостюхина
Русские субтитры: YakuSub Studio
Перевод: DiNeX
Редактура: Harushechka
Оформление: Helge

Режиссер: Судзуки Тосимаса

Студия:

Описание: История Toaru Hikuushi e no Koiuta расскажет о бывшем принце, чье королевское будущее было перечеркнуто развернувшейся в стране революцией. Впрочем, повзрослев, он ,вместо того что бы становиться флагом реставрации, решил посвятить свою жизнь небу и полетам, найти мифическое место где кончаются небеса.

Равка: Leopard-Raws
Качество: HDTVRip
Хардсаб: Отсутствует
Формат видео: mp4
Видео: AVC, 8 bits, 1280x720; 23.976 fps; 1741 Kbps, (16:9)
Аудио:
1. JP - AAC, 48.0 KHz, 192 kbps, 2 ch
01.Остров новых приключений
02. Авиационное отделение старшей школы Кадокес
03. Ветряная революция
04. Море звезд
05. Девушка, призывающая ветер
06. Святой Источник
07. Славная смерть
08. Имя птицы.
09. Твое имя.
10. Небеса храбрости.
11. Романс.
12. Край неба
Общее
Полное имя : H:\[Leopard-Raws]\[Leopard-Raws] Toaru Hikuushi e no Koiuta\[Leopard-Raws] Toaru Hikuushi e no Koiuta - 01 RAW (MX 1280x720 x264 AAC).mp4
Формат : MPEG-4
Профиль формата : Base Media
Идентификатор кодека : isom
Размер файла : 332 Мбайт
Продолжительность : 24 м.
Режим общего битрейта : Переменный
Общий поток : 1937 Кбит/сек
Дата кодирования : UTC 2014-01-06 15:02:07
Дата пометки : UTC 2014-01-06 15:02:07

Видео
Идентификатор : 1
Формат : AVC
Формат/Информация : Advanced Video Codec
Профиль формата : High@L4.1
Параметр CABAC формата : Да
Параметр ReFrames формата : 4 кадра
Идентификатор кодека : avc1
Идентификатор кодека/Информация : Advanced Video Coding
Продолжительность : 23 м.
Битрейт : 1741 Кбит/сек
Максимальный битрейт : 8086 Кбит/сек
Ширина : 1280 пикселей
Высота : 720 пикселей
Соотношение сторон : 16:9
Режим частоты кадров : Постоянный
Частота кадров : 23,976 кадра/сек
Цветовое пространство : YUV
Субдискретизация насыщенности : 4:2:0
Битовая глубина : 8 бит
Тип развёртки : Прогрессивная
Бит/(Пиксели*Кадры) : 0.079
Размер потока : 299 Мбайт (90%)
Заголовок : 264:fps=23.976@GPAC0.5.1-DEV-rev4283
Библиотека кодирования : x264 core 129 r2245+729M 1a52e03
Настройки программы : cabac=1 / ref=4 / deblock=1:1:-1 / analyse=0x3:0x113 / me=umh / subme=9 / psy=1 / fade_compensate=0.00 / psy_rd=1.00:0.00 / mixed_ref=1 / me_range=24 / chroma_me=1 / trellis=2 / 8x8dct=1 / cqm=0 / deadzone=21,11 / fast_pskip=1 / chroma_qp_offset=-2 / threads=8 / lookahead_threads=1 / sliced_threads=0 / nr=0 / decimate=1 / interlaced=0 / bluray_compat=0 / constrained_intra=0 / fgo=0 / bframes=9 / b_pyramid=2 / b_adapt=2 / b_bias=0 / direct=1 / weightb=1 / open_gop=0 / weightp=2 / keyint=240 / keyint_min=24 / scenecut=40 / intra_refresh=0 / rc=crf / mbtree=0 / crf=19.0 / qcomp=0.72 / qpmin=0 / qpmax=69 / qpstep=4 / ip_ratio=1.40 / pb_ratio=1.30 / aq=1:0.85
Дата кодирования : UTC 2014-01-06 15:02:07
Дата пометки : UTC 2014-01-06 15:02:11
Основные цвета : BT.709
Характеристики трансфера : BT.709
Коэффициенты матрицы : BT.709

Аудио
Идентификатор : 2
Формат : AAC
Формат/Информация : Advanced Audio Codec
Профиль формата : LC
Идентификатор кодека : 40
Продолжительность : 24 м.
Вид битрейта : Переменный
Битрейт : 192 Кбит/сек
Максимальный битрейт : 237 Кбит/сек
Каналы : 2 канала
Расположение каналов : Front: L R
Частота : 48,0 КГц
Метод сжатия : С потерями
Размер потока : 32,9 Мбайт (10%)
Язык : Japanese
Дата кодирования : UTC 2014-01-06 13:57:51
Дата пометки : UTC 2014-01-06 15:02:11


Трекер:  [ 29-Мар-2014 10:55 ]

  

Скачать .torrent

Размер .torrent файла 21 KB


Размер: 3.28 GB
Хэш (hash) релиза: 08e8abb94e64381ce61337e19f5c4e561db18fcf
Подписка на обновления:

Торренты, похожие на Любовная песня для одного пилота Toaru Hikuushi e no Koiuta скачать торрент

Форум Название Автор Размер S L Добавлен
Аниме | HD Rips ·· Любовная песня для одного пилота / Toaru Hikuushi e no Koiuta (Судзуки Тосимаса) [TV] [13 из 13] [Без хардсаба] [RUS(ext) JAP+SUB] [2014, приключения, BDRip] [720p] Galfimbul 66025205416.15 GB 0 0 1478515089

13:38

7-Ноя-16

Еще никто не оставлял запись к записи скачать торрент Любовная песня для одного пилота Toaru Hikuushi e no Koiuta . Будь первым!

!Обратная связь