Скачать порно через торрент Futabu! Клуб Фута UnionPeer.org бесплатно онлайн HD качество

Скачать новое порно 2015, 2014 новинки через торрент UnionPeer.org

Порно торрент бесплатно ЮнионПир.орг

Если у вас наблюдаются проблемы со скриншотами, переходом по ссылками, скачиванием торрентов - проблемы в блокировщике рекламы AdBlock. #хорошегоДня!


Статистика раздачи
Размер:  1.49 GB   |    Зарегистрирован:  3 года 4 месяца   |    .torrent скачан:  509 раз   |   
Раздают:  1  
   
Загрузка...
 
Автор Сообщение

Galfimbul

avatar Galfimbul


Futabu! / ふた部! / Клуб Фута / Футабу!

Год производства: 2014 г.
Жанр: Big tits, Group sex, Oral sex, Titsjob, School, Futanari
Серии: ep. 1 of 2
Продолжительность: 1х~18 min
Цензура: Есть

Озвучка: Японская (Оригинальная)

Режиссер: Yoshiten
Автор оригинала: Bosshi
Студия: Studio 9 Maiami, White Bear

Описание RUS: Думаю многие уже по картинки поняли что это жанр Футанари, девчонки с мужскими... пиписьками хахаха, многих это очень завораживает и сразу в голову закрадываются всякие извращённые мысли. В школе номер 666, нет конечно я шучу, наши девушки футанарьки учатся в колледже для девушек, после урока физкультуры они направляются в душ, неожиданно тут выплывает их маленький секрет, хотя не такой он уж и маленький если вы поняли о чём я. Девушкам явно не хватает внимания, не то что бы мужского и не то что бы женского, трудно разобраться в их ориентации и вот они занимаются любовью с друг дружкой, очень забавные героини которые не могут не вызвать восторга при просмотре, рекомендую любителям извращений и юриек.

Описание ENG: I think many have already realized that the picture is a genre of futanari, girls with male ... pipiskami hahaha many this is very fascinating and immediately to mind all sorts of perverted thoughts creep. The school number 666, no I''m kidding of course, our girls futanarki attending college for girls, after gym class they go into the shower, then suddenly comes up their little secret , though not as he too small if you know what I mean. Girls clearly not enough attention is not something that would be male and not something that would be a female , it is difficult to understand their orientation and here they are making love to each other sisters, very funny character who can not cause delight when viewing, I recommend to fans of perversions and yuriek.

Информационные ссылки: AniDB - MAL - World Art - ХентайМаг

Качество видео: DVD5
Формат видео: DVD Video
Видео кодек: MPEG2
Аудио кодек: AC3
Видео: 720х480, (16:9), 29,970 кадров/сек, ~ 7000 Кбит/сек, NTSC
Аудио: JAP, AC-3, 2 канала, 224 Кбит/сек, 48,0 КГц
Общее
Полное имя : G:\VIDEO_TS\VTS_01_1.VOB
Формат : MPEG-PS
Размер файла : 1024 Мбайт
Продолжительность : 10 м.
Режим общего битрейта : Переменный
Общий поток : 13,2 Мбит/сек

Видео
Идентификатор : 224 (0xE0)
Формат : MPEG Video
Версия формата : Version 2
Профиль формата : Main@Main
Параметр BVOP формата : Да
Параметр матрицы формата : По умолчанию
Параметр GOP формата : Variable
Продолжительность : 10 м.
Вид битрейта : Переменный
Битрейт : 12,7 Мбит/сек
Максимальный битрейт : 8000 Кбит/сек
Ширина : 720 пикселей
Высота : 480 пикселей
Соотношение сторон : 16:9
Частота кадров : 29,970 кадров/сек
Стандарт вещания : NTSC
Цветовое пространство : YUV
Субдискретизация насыщенности : 4:2:0
Битовая глубина : 8 бит
Тип развёртки : Прогрессивная
Метод сжатия : С потерями
Бит/(Пиксели*Кадры) : 1.224
Временной код первого кадра : 00:00:00;00
Оригинал временного кода : Group of pictures header
Размер потока : 986 Мбайт (96%)

Аудио
Идентификатор : 189 (0xBD)-128 (0x80)
Формат : AC-3
Формат/Информация : Audio Coding 3
Расширение режима : CM (complete main)
Параметр Endianness формата : Big
Режим смешивания : DVD-Video
Продолжительность : 10 м.
Вид битрейта : Постоянный
Битрейт : 224 Кбит/сек
Каналы : 2 канала
Расположение каналов : Front: L R
Частота : 48,0 КГц
Битовая глубина : 16 бит
Метод сжатия : С потерями
Задержка видео : -66 мс.
Размер потока : 17,4 Мбайт (2%)

Меню


Трекер:  [ 25-Мар-2014 21:10 ]

  

Скачать .torrent

Размер .torrent файла 15 KB


Размер: 1.49 GB
Хэш (hash) релиза: 3d2bd01108d2f423dca559aa0c083f76f677e23d

StellaDeus

Блин!А без цензуры вообще есть этот мультик???

Хотите добавить комментарий к записи скачать торрент Futabu! Клуб Фута

!Обратная связь