Скачать порно через торрент Onmyouji Ayakashi no Megami: Inran Jubaku Богини учения онмедзи - Заклинание похоти UnionPeer.org бесплатно онлайн HD качество

Скачать новое порно 2015, 2014 новинки через торрент UnionPeer.org

Порно торрент бесплатно ЮнионПир.орг

Если у вас наблюдаются проблемы со скриншотами, переходом по ссылками, скачиванием торрентов - проблемы в блокировщике рекламы AdBlock. #хорошегоДня!


Статистика раздачи
Размер:  5.6 GB   |    Зарегистрирован:  3 года 4 месяца   |    .torrent скачан:  200 раз   |   
Раздают:  1  
   
Загрузка...
 
Автор Сообщение

Galfimbul

avatar Galfimbul


Onmyouji Ayakashi no Megami: Inran Jubaku / Onmyouji: Youen Emaki / 陰陽師 妖かしの女神 淫乱呪縛 / Богини учения онмедзи - Заклинание похоти

Год производства: 2009 г.
Жанр: BDSM, Big tits, Milk, Oral sex, Fantasy, Rape, Demons, Futanari, Tentacles
Серии: ep. 1-2 of 2
Продолжительность: 2х~29 min
Цензура: Есть

Озвучка: Японская (Оригинальная)

Режиссер: Raika Ken
Автор оригинала: T-Rex
Студия: Milky Animation Label

Описание RUS: Злая богиня пытается получить абсолютно власть, поглощаю жизненную энергию мужчин в облике очаровательной женщины. Tiger, Dragon, Phoenix и Turtle пытаются остановить её, но их усилия окажутся Тщетными когда две из них попадают под контроль злой богини. Жизнь молодого парня под большой угрозой по этому они должны спешить, что бы спасти его.

Описание ENG: On April 9 in the 44th year of the Meiji Period, the so-called the Goddess of Fertility, Doma, instantaneously extinguishes the hellfire of Yoshiwara and rebuilds it as the New Yoshiwara, centering on her own castle, Tenkukaku, and making it as prosperous as it was before. But she's a demon that contemplates the overthrow of Japan. Seimei, the Onmyoji, is cursed by her. Miyamoto is a sacrifice for her. Seiryu and Genbu run for Tenkukaku to annihilate the source of her evil. And Byakko follows the two despite Suzaku's effort to stop her. Who will win?

Информационные ссылки: AniDB - MAL - World Art - ХентайМаг
Спасибо: caifrat

Качество видео: 2x DVD5
Формат видео: DVD Video
Видео кодек: MPEG2
Аудио кодек: AC3
Видео: 720х480, (16:9), 29,970 кадров/сек, ~ 8000 Кбит/сек, NTSC
Аудио: JAP, AC-3, 2 канала, 384 Кбит/сек, 48,0 КГц
Общее
Полное имя : J:\VIDEO_TS\VTS_01_1.VOB
Формат : MPEG-PS
Размер файла : 1024 Мбайт
Продолжительность : 16 м.
Общий поток : 8531 Кбит/сек

Видео
Идентификатор : 224 (0xE0)
Формат : MPEG Video
Версия формата : Version 2
Профиль формата : Main@Main
Параметр BVOP формата : Да
Параметр матрицы формата : Выборочная
Параметр GOP формата : Variable
Продолжительность : 16 м.
Битрейт : 8000 Кбит/сек
Ширина : 720 пикселей
Высота : 480 пикселей
Соотношение сторон : 16:9
Частота кадров : 29,970 кадров/сек
Стандарт вещания : NTSC
Цветовое пространство : YUV
Субдискретизация насыщенности : 4:2:0
Битовая глубина : 8 бит
Тип развёртки : Чересстрочная
Порядок развёртки : Верхнее поле первое
Метод сжатия : С потерями
Бит/(Пиксели*Кадры) : 0.772
Временной код первого кадра : 01:00:19:00
Оригинал временного кода : Group of pictures header
Размер потока : 957 Мбайт (94%)

Аудио
Идентификатор : 189 (0xBD)-128 (0x80)
Формат : AC-3
Формат/Информация : Audio Coding 3
Расширение режима : CM (complete main)
Параметр Endianness формата : Big
Режим смешивания : DVD-Video
Продолжительность : 16 м.
Вид битрейта : Постоянный
Битрейт : 384 Кбит/сек
Каналы : 2 канала
Расположение каналов : Front: L R
Частота : 48,0 КГц
Битовая глубина : 16 бит
Метод сжатия : С потерями
Размер потока : 46,1 Мбайт (5%)

Меню


Трекер:  [ 22-Мар-2014 14:37 ]

  

Скачать .torrent

Размер .torrent файла 14 KB


Размер: 5.6 GB
Хэш (hash) релиза: c2d6e2bf1cf93a76f1a9f7e2b1e4b88e7f4319a1

Еще никто не оставлял запись к записи скачать торрент Onmyouji Ayakashi no Megami: Inran Jubaku Богини учения онмедзи - Заклинание похоти . Будь первым!

!Обратная связь