Скачать порно через торрент Private Gold 8: The Longest Night Самая длинная ночь UnionPeer.org бесплатно онлайн HD качество

Скачать новое порно 2015, 2014 новинки через торрент UnionPeer.org

Порно торрент бесплатно ЮнионПир.орг

Если у вас наблюдаются проблемы со скриншотами, переходом по ссылками, скачиванием торрентов - проблемы в блокировщике рекламы AdBlock. #хорошегоДня!


Статистика раздачи
Размер:  6.48 GB   |    Зарегистрирован:  3 года 5 месяцев   |    .torrent скачан:  299 раз   |   
Раздают:  1   Качают:  1  
   
Загрузка...
 
Автор Сообщение

Galfimbul

avatar Galfimbul


Private Gold 8: The Longest Night / Самая длинная ночь

Год производства: 1996 г.
Страна: Europe
Жанр: Feature, Straight, Anal, Double Penetration, Group
Продолжительность: 01:35:31

Режиссер: Jane Waters
Студия: Private

Язык: Английский
Доп. языки: Испанский Немецкий Французский
Субтитры: Nederlands Svenska Danske Portudues

В ролях: Agnes,
Andrea Red,
Beata, Ezter,
Gabriella Blicq,
Mona, Neomi,
Valentina Velasquez

Описание: The “Longest Night” is produced in one of the coldest weeks during the winter seasons, when there is at the most two hours of daylight. During The Longest Night-day, a hot ceremonial celebration called Mid-Winter Blessings is held in the Northern part of Scandinavia. Originally, the tradition of these hot and nasty sex parties come from the period when the Vikings lived here, famous for being wild. Last year Mona was invited to a hot party of her friend Monica’s house, end ever since that day and night, Mona has been longing for next year party. But this time Mona has invited some new friend to The Longest Night-day party for to make in even hotter…

"Самая долгая Ночь" произведена в одной из самых холодных недель в течение зимних сезонов, когда есть самое большее два часа дневного света. В течение Самого длинного Вечернего-дневного, горячее церемониальное празднование по имени Благословения Середины зимы проведено в Северной части Скандинавии. Первоначально, традиция этих горячих и противных сексуальных сторон прибывают с периода, когда Викинги жили здесь, известные быть диким. В прошлом году Мона была приглашена на горячую сторону дома ее друга Моники, конец с тех пор тот день и ночь, Мона жаждала в следующем году стороны. Но на сей раз Мона пригласила некоторого нового друга на Самую длинную Вечернюю-дневную сторону для сделать в еще более горячем...

Меню: Есть
Доп. материалы и бонусы: http://www.adultdvdemart.com/-/adult_dvd_product_info/filmid=STDV5411.html/-C4AD409D-7D88-4EB2-9264-E60A8BE25F62
http://www.adultdvdempire.com/39513/longest-night-the-porn-movies.html
http://www.egafd.com/films/details.php/id/l01045

Качество видео: DVD9
Аудио кодек: AC3
Видео: MPEG2 Video 720x480 (4:3) 29.97fps [V: mpeg2 main, yuv420p, 720x480]
Аудио: Dolby AC3 48000Hz stereo 192kbps [A: ac3, 48000 Hz, stereo, 192 kb/s]
General
Complete name : NIGHTNTSC\VIDEO_TS\VTS_01_2.VOB
Format : MPEG-PS
File size : 1 024 MiB
Duration : 16mn 24s
Overall bit rate mode : Variable
Overall bit rate : 8 726 Kbps

Video
ID : 224 (0xE0)
Format : MPEG Video
Format version : Version 2
Format profile : Main@Main
Format settings, BVOP : Yes
Format settings, Matrix : Custom
Format settings, GOP : M=3, N=12
Duration : 16mn 24s
Bit rate mode : Variable
Bit rate : 7 800 Kbps
Width : 720 pixels
Height : 480 pixels
Display aspect ratio : 4:3
Frame rate : 29.970 fps
Standard : NTSC
Color space : YUV
Chroma subsampling : 4:2:0
Bit depth : 8 bits
Scan type : Interlaced
Scan order : Top Field First
Compression mode : Lossy
Bits/(Pixel*Frame) : 0.753
Time code of first frame : 10:13:21:03
Time code source : Group of pictures header
Stream size : 913 MiB (89%)

Audio #1
ID : 189 (0xBD)-128 (0x80)
Format : AC-3
Format/Info : Audio Coding 3
Mode extension : CM (complete main)
Format settings, Endianness : Big
Muxing mode : DVD-Video
Duration : 16mn 24s
Bit rate mode : Constant
Bit rate : 192 Kbps
Channel(s) : 2 channels
Channel positions : Front: L R
Sampling rate : 48.0 KHz
Bit depth : 16 bits
Compression mode : Lossy
Delay relative to video : -228ms
Stream size : 22.5 MiB (2%)

Audio #2
ID : 189 (0xBD)-129 (0x81)
Format : AC-3
Format/Info : Audio Coding 3
Mode extension : CM (complete main)
Format settings, Endianness : Big
Muxing mode : DVD-Video
Duration : 16mn 24s
Bit rate mode : Constant
Bit rate : 192 Kbps
Channel(s) : 2 channels
Channel positions : Front: L R
Sampling rate : 48.0 KHz
Bit depth : 16 bits
Compression mode : Lossy
Delay relative to video : -228ms
Stream size : 22.5 MiB (2%)

Audio #3
ID : 189 (0xBD)-130 (0x82)
Format : AC-3
Format/Info : Audio Coding 3
Mode extension : CM (complete main)
Format settings, Endianness : Big
Muxing mode : DVD-Video
Duration : 16mn 24s
Bit rate mode : Constant
Bit rate : 192 Kbps
Channel(s) : 2 channels
Channel positions : Front: L R
Sampling rate : 48.0 KHz
Bit depth : 16 bits
Compression mode : Lossy
Delay relative to video : -228ms
Stream size : 22.5 MiB (2%)

Audio #4
ID : 189 (0xBD)-131 (0x83)
Format : AC-3
Format/Info : Audio Coding 3
Mode extension : CM (complete main)
Format settings, Endianness : Big
Muxing mode : DVD-Video
Duration : 16mn 24s
Bit rate mode : Constant
Bit rate : 192 Kbps
Channel(s) : 2 channels
Channel positions : Front: L R
Sampling rate : 48.0 KHz
Bit depth : 16 bits
Compression mode : Lossy
Delay relative to video : -228ms
Stream size : 22.5 MiB (2%)

Text #1
ID : 189 (0xBD)-32 (0x20)
Format : RLE
Format/Info : Run-length encoding
Muxing mode : DVD-Video

Text #2
ID : 189 (0xBD)-33 (0x21)
Format : RLE
Format/Info : Run-length encoding
Muxing mode : DVD-Video

Text #3
ID : 189 (0xBD)-34 (0x22)
Format : RLE
Format/Info : Run-length encoding
Muxing mode : DVD-Video

Text #4
ID : 189 (0xBD)-35 (0x23)
Format : RLE
Format/Info : Run-length encoding
Muxing mode : DVD-Video

Menu


Трекер:  [ 22-Мар-2014 09:23 ]

  

Скачать .torrent

Размер .torrent файла 17 KB


Размер: 6.48 GB
Хэш (hash) релиза: 8c7cca72b22647b2f8d6baa039bb9f1389095643

Торренты, похожие на Private Gold 8: The Longest Night Самая длинная ночь скачать торрент

Форум Название Автор Размер S L Добавлен
Порно фильмы с сюжетом ·· Private Gold 8: The Longest Night / Самая длинная ночь (с русским переводом) (Jane Waters, Private) [1996 г., Feature, European, Couples, Anal, DP, DVDRip] (Jessika Forister, Valentina Velasquez, Beata, Ezter, GaGabriella Blicq, Mona) [rus] Galfimbul 17117692151.59 GB 0 0 1414580862

14:07

29-Окт-14

Еще никто не оставлял запись к записи скачать торрент Private Gold 8: The Longest Night Самая длинная ночь . Будь первым!

!Обратная связь