Скачать через торрент XI Зимние Паралимпийские Игры 2014 Церемония закрытия Фильм бесплатно в хорошем качестве torrent

Скачивайте на UnionPeer.org фильмы через торрент без регистрации. Новинки кино в хорошем качестве через торрент. На UnionPeer.org можно скачать через торрент фильмы 2014 и 2015 годов. Самые новые фильмы.

Скачать торрент XI Зимние Паралимпийские Игры 2014 Церемония закрытия бесплатно через .torrent фильм мультфильм сериал

Если у вас наблюдаются проблемы со скриншотами, переходом по ссылками, скачиванием торрентов - проблемы в блокировщике рекламы AdBlock. #хорошегоДня!


Статистика раздачи
Размер:  2.73 GB   |    Зарегистрирован:  3 года 7 месяцев   |    .torrent скачан:  55 раз   |   
Раздают:  1  
   
Загрузка...
 
Автор Сообщение

Galfimbul

avatar Galfimbul


XI Зимние Паралимпийские Игры 2014. Церемония закрытия. Россия HD

Комментарий: Профессиональный
Язык комментариев: Русский (Сергей Брилев и Дмитрий Губерниев)
Продолжительность: 01:45:35
Описание: Торжественная Церемония закрытия XI зимних Паралимпийских игр 2014 в Сочи.

Трансляция полная, реклам во время трансляции не было!
Автор рипа: sanchez2011
Качество: HDTVRip
Формат: MKV
Видео кодек: AVC
Аудио кодек: AC3
Видео: MPEG4 Video (H264) 1280x720 (16:9) 3500kbps 25fps
Аудио: AC3 48000Hz stereo 192kbps
GeneralUnique ID : 18771443136011564488098240080493740197 (0xE1F3F99FE465F6984B12466A6A900A5)Complete name : E:\Паралимпиада 2014\Паралимпиада 2014. Закрытие HDTVRip 720p.mkvFormat : MatroskaFormat version : Version 2File size : 2.73 GiBDuration : 1h 45mnOverall bit rate : 3 702 KbpsWriting application : XviD4PSP 6.0 / 53.6.0Writing library : XviD4PSP 6.0 / 53.6.0

VideoID : 1Format : AVCFormat/Info : Advanced Video CodecFormat profile : High@L4.1Format settings, CABAC : YesFormat settings, ReFrames : 3 framesCodec ID : V_MPEG4/ISO/AVCDuration : 1h 45mnBit rate : 3 500 KbpsWidth : 1 280 pixelsHeight : 720 pixelsDisplay aspect ratio : 16:9Frame rate mode : ConstantFrame rate : 25.000 fpsColor space : YUVChroma subsampling : 4:2:0Bit depth : 8 bitsScan type : ProgressiveBits/(Pixel*Frame) : 0.152Stream size : 2.53 GiB (93%)Writing library : x264 core 116 r2019M 9cc407dEncoding settings : cabac=1 / ref=3 / deblock=1:0:0 / analyse=0x3:0x133 / me=hex / subme=7 / psy=1 / psy_rd=1.00:0.20 / mixed_ref=1 / me_range=16 / chroma_me=1 / trellis=1 / 8x8dct=1 / cqm=0 / deadzone=21,11 / fast_pskip=1 / chroma_qp_offset=-3 / threads=8 / sliced_threads=0 / nr=0 / decimate=1 / interlaced=0 / bluray_compat=0 / constrained_intra=0 / bframes=3 / b_pyramid=1 / b_adapt=2 / b_bias=0 / direct=3 / weightb=1 / open_gop=0 / weightp=2 / keyint=250 / keyint_min=25 / scenecut=40 / intra_refresh=0 / rc_lookahead=40 / rc=abr / mbtree=1 / bitrate=3500 / ratetol=1.0 / qcomp=0.60 / qpmin=10 / qpmax=51 / qpstep=4 / ip_ratio=1.40 / aq=1:1.00Default : YesForced : No

AudioID : 2Format : AC-3Format/Info : Audio Coding 3Mode extension : CM (complete main)Format settings, Endianness : BigCodec ID : A_AC3Duration : 1h 45mnBit rate mode : ConstantBit rate : 192 KbpsChannel(s) : 2 channelsChannel positions : Front: L RSampling rate : 48.0 KHzBit depth : 16 bitsCompression mode : LossyStream size : 145 MiB (5%)Language : RussianDefault : YesForced : No
[url=http://wiki.цензор/%D0%A5%D0%B5%D1%88-%D1%81%D1%83%D0%BC%D0%BC%D0%B0_%D0%B8_%D0%BC%D0%B0%D0%B3%D0%BD%D0%B5%D1%82-%D1%81%D1%81%D1%8B%D0%BB%D0%BA%D0%B8]Как скачать закрытую правообладателями раздачу[/url]

Трекер:  [ 17-Мар-2014 06:30 ]

  

Скачать .torrent

Размер .torrent файла 14 KB


Размер: 2.73 GB
Хэш (hash) релиза: 4f50ec35d48891a26ca2c73267d535bf489bcef3
Подписка на обновления:

Торренты, похожие на XI Зимние Паралимпийские Игры 2014 Церемония закрытия скачать торрент

Форум Название Автор Размер S L Добавлен
Зимние Олимпийские игры в Сочи 2014 ·· XI Зимние Паралимпийские Игры 2014 / Церемония закрытия / Россия HD [16.03.2014, Паралимпиада, HDTV, H264, 1080i] Galfimbul 78120984207.28 GB 0 0 1394994696

21:31

16-Мар-14

Спорт ·· XI Зимние Паралимпийские Игры 2014 (Сочи, Россия). Церемония закрытия / Россия HD [16.03.2014, Зимние виды спорта, HDTVRip/720p/50fps, MKV/H.264, RU] Galfimbul 27355738692.55 GB 0 0 1503984051

08:20

29-Авг-17

Еще никто не оставлял запись к записи скачать торрент XI Зимние Паралимпийские Игры 2014 Церемония закрытия . Будь первым!

!Обратная связь