Скачать через торрент XI Зимние Паралимпийские Игры 2014 Церемония закрытия Фильм бесплатно в хорошем качестве torrent

Скачивайте на UnionPeer.org фильмы через торрент без регистрации. Новинки кино в хорошем качестве через торрент. На UnionPeer.org можно скачать через торрент фильмы 2014 и 2015 годов. Самые новые фильмы.

Скачать торрент XI Зимние Паралимпийские Игры 2014 Церемония закрытия бесплатно через .torrent фильм мультфильм сериал

Если у вас наблюдаются проблемы со скриншотами, переходом по ссылками, скачиванием торрентов - проблемы в блокировщике рекламы AdBlock. #хорошегоДня!


Статистика раздачи
Размер:  2.37 GB   |    Зарегистрирован:  3 года 7 месяцев   |    .torrent скачан:  96 раз   |   
Раздают:  1  
   
Загрузка...
 
Автор Сообщение

Galfimbul

avatar Galfimbul


XI Зимние Паралимпийские Игры 2014. Церемония закрытия. Спорт 1

Комментарий: Профессиональный
Язык комментариев: Русский (Сергей Брилев и Дмитрий Губерниев)
Продолжительность: 01:46:43
Описание: Торжественная Церемония закрытия XI зимних Паралимпийских игр 2014 в Сочи.

Трансляция полная, реклам во время трансляции не было!
Автор рипа: sanchez2011
Качество: DVB
Формат: MPEG-PS
Видео кодек: MPEG2
Аудио кодек: MP2
Видео: MPEG2 Video 720x576 (16:9) 25.00fps 3000kbps
Аудио: MPEG Audio Layer 2 48000Hz stereo 192kbps
GeneralComplete name : E:\Паралимпиада 2014\Паралимпиада 2014. Закрытие.mpgFormat : MPEG-PSFile size : 2.37 GiBDuration : 1h 46mnOverall bit rate mode : VariableOverall bit rate : 3 173 Kbps

VideoID : 224 (0xE0)Format : MPEG VideoFormat version : Version 2Format profile : Main@MainFormat settings, BVOP : YesFormat settings, Matrix : CustomFormat settings, GOP : VariableDuration : 1h 46mnBit rate mode : VariableBit rate : 2 918 KbpsMaximum bit rate : 15.0 MbpsWidth : 720 pixelsHeight : 576 pixelsDisplay aspect ratio : 16:9Frame rate : 25.000 fpsStandard : PALColor space : YUVChroma subsampling : 4:2:0Bit depth : 8 bitsScan type : InterlacedScan order : Top Field FirstCompression mode : LossyBits/(Pixel*Frame) : 0.281Time code of first frame : 00:00:00:00Time code source : Group of pictures headerStream size : 2.18 GiB (92%)

AudioID : 192 (0xC0)Format : MPEG AudioFormat version : Version 1Format profile : Layer 2Duration : 1h 46mnBit rate mode : ConstantBit rate : 192 KbpsChannel(s) : 2 channelsSampling rate : 48.0 KHzCompression mode : LossyDelay relative to video : 76msStream size : 147 MiB (6%)
[url=http://wiki.цензор/%D0%A5%D0%B5%D1%88-%D1%81%D1%83%D0%BC%D0%BC%D0%B0_%D0%B8_%D0%BC%D0%B0%D0%B3%D0%BD%D0%B5%D1%82-%D1%81%D1%81%D1%8B%D0%BB%D0%BA%D0%B8]Как скачать закрытую правообладателями раздачу[/url]

Трекер:  [ 16-Мар-2014 21:30 ]

  

Скачать .torrent

Размер .torrent файла 12 KB


Размер: 2.37 GB
Хэш (hash) релиза: 178eff8db007b74edb51629e231ebc0773993fad
Подписка на обновления:

Торренты, похожие на XI Зимние Паралимпийские Игры 2014 Церемония закрытия скачать торрент

Форум Название Автор Размер S L Добавлен
Зимние Олимпийские игры в Сочи 2014 ·· XI Зимние Паралимпийские Игры 2014 / Церемония закрытия / Спорт 1 [16.03.2014, Паралимпиада, SATRip, AVI, XviD, 400p] Galfimbul 15465840641.44 GB 0 0 1394998321

22:32

16-Мар-14

Еще никто не оставлял запись к записи скачать торрент XI Зимние Паралимпийские Игры 2014 Церемония закрытия . Будь первым!

!Обратная связь