Скачать через торрент XI Зимние Паралимпийские Игры 2014 Церемония закрытия Фильм бесплатно в хорошем качестве torrent

Скачивайте на UnionPeer.org фильмы через торрент без регистрации. Новинки кино в хорошем качестве через торрент. На UnionPeer.org можно скачать через торрент фильмы 2014 и 2015 годов. Самые новые фильмы.

Скачать торрент XI Зимние Паралимпийские Игры 2014 Церемония закрытия бесплатно через .torrent фильм мультфильм сериал

Если у вас наблюдаются проблемы со скриншотами, переходом по ссылками, скачиванием торрентов - проблемы в блокировщике рекламы AdBlock. #хорошегоДня!


Статистика раздачи
Размер:  7.28 GB   |    Зарегистрирован:  3 года 7 месяцев   |    .torrent скачан:  46 раз   |   
Раздают:  1  
   
Загрузка...
 
Автор Сообщение

Galfimbul

avatar Galfimbul


XI Зимние Паралимпийские Игры 2014. Церемония закрытия. Россия HD

Комментарий: Профессиональный
Язык комментариев: Русский (Сергей Брилев и Дмитрий Губерниев)
Продолжительность: 01:45:35
Описание: Торжественная Церемония закрытия XI зимних Паралимпийских игр 2014 в Сочи.

Трансляция полная, реклам во время трансляции не было!
Автор рипа: sanchez2011
Качество: HDTV
Формат: MPEG-TS
Видео кодек: AVC
Аудио кодек: MP2
Видео: MPEG4 Video (H264) 1920x1080 9100kbps 25fps
Аудио: MPEG Audio 48000Hz stereo 224kbps
GeneralID : 1 (0x1)Complete name : E:\Паралимпиада 2014\Паралимпиада 2014. Закрытие HDTV.tsFormat : MPEG-TSFile size : 7.28 GiBDuration : 1h 45mnOverall bit rate mode : VariableOverall bit rate : 9 864 Kbps

VideoID : 1901 (0x76D)Menu ID : 1 (0x1)Format : AVCFormat/Info : Advanced Video CodecFormat profile : High@L4.0Format settings, CABAC : YesFormat settings, ReFrames : 3 framesCodec ID : 27Duration : 1h 45mnBit rate : 9 151 KbpsWidth : 1 920 pixelsHeight : 1 080 pixelsDisplay aspect ratio : 16:9Frame rate : 25.000 fpsStandard : ComponentColor space : YUVChroma subsampling : 4:2:0Bit depth : 8 bitsScan type : InterlacedScan order : Top Field FirstBits/(Pixel*Frame) : 0.177Stream size : 6.75 GiB (93%)Color primaries : BT.709Transfer characteristics : BT.709Matrix coefficients : BT.709

AudioID : 2901 (0xB55)Menu ID : 1 (0x1)Format : MPEG AudioFormat version : Version 1Format profile : Layer 2Codec ID : 3Duration : 1h 45mnBit rate mode : ConstantBit rate : 224 KbpsChannel(s) : 2 channelsSampling rate : 48.0 KHzCompression mode : LossyStream size : 169 MiB (2%)Language : Russian
[url=http://wiki.цензор/%D0%A5%D0%B5%D1%88-%D1%81%D1%83%D0%BC%D0%BC%D0%B0_%D0%B8_%D0%BC%D0%B0%D0%B3%D0%BD%D0%B5%D1%82-%D1%81%D1%81%D1%8B%D0%BB%D0%BA%D0%B8]Как скачать закрытую правообладателями раздачу[/url]

Трекер:  [ 16-Мар-2014 21:30 ]

  

Скачать .torrent

Размер .torrent файла 37 KB


Размер: 7.28 GB
Хэш (hash) релиза: bb79194dded48aa37948187eac4805b8f2479d31
Подписка на обновления:

Торренты, похожие на XI Зимние Паралимпийские Игры 2014 Церемония закрытия скачать торрент

Форум Название Автор Размер S L Добавлен
Зимние Олимпийские игры в Сочи 2014 ·· XI Зимние Паралимпийские Игры 2014 / Церемония закрытия / Россия HD [16.03.2014, Паралимпиада, HDTVRip, H264, MKV, 720p] Galfimbul 29319373932.73 GB 0 0 1395027066

06:31

17-Мар-14

Спорт ·· XI Зимние Паралимпийские Игры 2014 (Сочи, Россия). Церемония закрытия / Россия HD [16.03.2014, Зимние виды спорта, HDTVRip/720p/50fps, MKV/H.264, RU] Galfimbul 27355738692.55 GB 0 0 1503984051

08:20

29-Авг-17

Еще никто не оставлял запись к записи скачать торрент XI Зимние Паралимпийские Игры 2014 Церемония закрытия . Будь первым!

!Обратная связь