Скачать порно через торрент Machi Gurumi no Wana: Hakudaku ni Mamireta Shitai В западне города: Страшно до жути UnionPeer.org бесплатно онлайн HD качество

Скачать новое порно 2015, 2014 новинки через торрент UnionPeer.org

Порно торрент бесплатно ЮнионПир.орг

Если у вас наблюдаются проблемы со скриншотами, переходом по ссылками, скачиванием торрентов - проблемы в блокировщике рекламы AdBlock. #хорошегоДня!


Статистика раздачи
Размер:  6.03 GB   |    Зарегистрирован:  3 года 7 месяцев   |    .torrent скачан:  195 раз   |   
Раздают:  1  
   
Загрузка...
 
Автор Сообщение

_N_

avatar _N_


町ぐるみの罠~白濁にまみれた肢体~ | Machi Gurumi no Wana: Hakudaku ni Mamireta Shitai | В западне города: Страшно до жути
Год выпуска: 2010
Страна: Япония
Жанр: anal, big tits, blowjob, female students, group, incest, rape, school, small tits, titsjob
Продолжительность: >3 эп. по 30 мин.
Субтитры: Отсутствуют
Цензура: Присутствует
Студия: PoRO
Описание:
On the recommendation of her father's friend, Takagi Atsuko takes up a teaching position at Nansui Academy. One day, pictures taken by a peeping tom are put up on the notice board. The identity of the culprit is unknown, but suspicion falls on the class outcast, Murayama Kenji. Atsuko defends Kenji, whose father is the Academy's principal, publicly. However, the truth is that Kenji is using that authority to force Atsuko into many sexual and perverse acts. Some of these in public. Soon, Atsuko finds her body craving for even more...

Later, Takagi Yui, Atsuko's younger sister and a student at Nansui Academy, discovers what is happening. In order to help her sister, Yui approaches the Murayamas...
Информационные ссылки: AniDB || MAL || World Art || ХентайМаг
Исходник: DVD-5
Видео: MPEG2 | NTSC | 16x9 | 720x480 | 9200 Kbps
Аудио JAP #1: AC-3 | 48000Hz | 192 Kbps | 2ch
Аудио JAP #2: AC-3 | 48000Hz | 192 Kbps | 2ch
01. Volume 1
02. Volume 2
03. Volume 3
General
Complete name : H:\VIDEO_TS\VTS_01_1.VOB
Format : MPEG-PS
File size : 1 024 MiB
Duration : 20mn 18s
Overall bit rate mode : Variable
Overall bit rate : 7 044 Kbps
Writing library : encoded by TMPGEnc 4.0 XPress Version. 4.5.2.255

Video
ID : 224 (0xE0)
Format : MPEG Video
Format version : Version 2
Format profile : Main@Main
Format settings, BVOP : Yes
Format settings, Matrix : Custom
Duration : 20mn 18s
Bit rate mode : Variable
Bit rate : 6 520 Kbps
Maximum bit rate : 9 200 Kbps
Width : 720 pixels
Height : 480 pixels
Display aspect ratio : 16:9
Frame rate : 29.970 fps
Standard : NTSC
Color space : YUV
Chroma subsampling : 4:2:0
Bit depth : 8 bits
Scan type : Interlaced
Scan order : Top Field First
Compression mode : Lossy
Bits/(Pixel*Frame) : 0.629
Stream size : 947 MiB (93%)
Writing library : TMPGEnc XPress 4.5.2.255
Color primaries : SMPTE 170M
Transfer characteristics : SMPTE 170M
Matrix coefficients : SMPTE 170M

Audio #1
ID : 189 (0xBD)-128 (0x80)
Format : AC-3
Format/Info : Audio Coding 3
Mode extension : CM (complete main)
Muxing mode : DVD-Video
Duration : 20mn 18s
Bit rate mode : Constant
Bit rate : 192 Kbps
Channel(s) : 2 channels
Channel positions : Front: L R
Sampling rate : 48.0 KHz
Bit depth : 16 bits
Compression mode : Lossy
Stream size : 27.9 MiB (3%)

Audio #2
ID : 189 (0xBD)-129 (0x81)
Format : AC-3
Format/Info : Audio Coding 3
Mode extension : CM (complete main)
Muxing mode : DVD-Video
Duration : 20mn 18s
Bit rate mode : Constant
Bit rate : 192 Kbps
Channel(s) : 2 channels
Channel positions : Front: L R
Sampling rate : 48.0 KHz
Bit depth : 16 bits
Compression mode : Lossy
Stream size : 27.9 MiB (3%)
Исходник: DVD-5
Видео: MPEG2 | NTSC | 16x9 | 720x480 | 9400 Kbps
Аудио JAP #1: AC-3 | 48000Hz | 192 Kbps | 2ch
Аудио JAP #2: AC-3 | 48000Hz | 192 Kbps | 2ch
General
Complete name : H:\VIDEO_TS\VTS_01_1.VOB
Format : MPEG-PS
File size : 1 024 MiB
Duration : 18mn 25s
Overall bit rate mode : Variable
Overall bit rate : 7 766 Kbps
Writing library : encoded by TMPGEnc 4.0 XPress Version. 4.5.2.255

Video
ID : 224 (0xE0)
Format : MPEG Video
Format version : Version 2
Format profile : Main@Main
Format settings, BVOP : Yes
Format settings, Matrix : Custom
Format settings, GOP : M=3, N=16
Duration : 18mn 25s
Bit rate mode : Variable
Bit rate : 7 228 Kbps
Maximum bit rate : 9 400 Kbps
Width : 720 pixels
Height : 480 pixels
Display aspect ratio : 16:9
Frame rate : 29.970 fps
Standard : NTSC
Color space : YUV
Chroma subsampling : 4:2:0
Bit depth : 8 bits
Scan type : Interlaced
Scan order : Top Field First
Compression mode : Lossy
Bits/(Pixel*Frame) : 0.698
Stream size : 953 MiB (93%)
Writing library : TMPGEnc XPress 4.5.2.255
Color primaries : SMPTE 170M
Transfer characteristics : SMPTE 170M
Matrix coefficients : SMPTE 170M

Audio #1
ID : 189 (0xBD)-128 (0x80)
Format : AC-3
Format/Info : Audio Coding 3
Mode extension : CM (complete main)
Muxing mode : DVD-Video
Duration : 18mn 25s
Bit rate mode : Constant
Bit rate : 192 Kbps
Channel(s) : 2 channels
Channel positions : Front: L R
Sampling rate : 48.0 KHz
Bit depth : 16 bits
Compression mode : Lossy
Stream size : 25.3 MiB (2%)

Audio #2
ID : 189 (0xBD)-129 (0x81)
Format : AC-3
Format/Info : Audio Coding 3
Mode extension : CM (complete main)
Muxing mode : DVD-Video
Duration : 18mn 25s
Bit rate mode : Constant
Bit rate : 192 Kbps
Channel(s) : 2 channels
Channel positions : Front: L R
Sampling rate : 48.0 KHz
Bit depth : 16 bits
Compression mode : Lossy
Stream size : 25.3 MiB (2%)
Исходник: DVD-5
Видео: MPEG2 | NTSC | 16x9 | 720x480 | 7200 Kbps
Аудио JAP #1: AC-3 | 48000Hz | 192 Kbps | 2ch
Аудио JAP #2: AC-3 | 48000Hz | 192 Kbps | 2ch
General
Complete name : L:\VIDEO_TS\VTS_01_1.VOB
Format : MPEG-PS
File size : 1 024 MiB
Duration : 4mn 20s
Overall bit rate : 33.0 Mbps

Video
ID : 224 (0xE0)
Format : MPEG Video
Format version : Version 2
Format profile : Main@Main
Format settings, BVOP : Yes
Format settings, Matrix : Custom
Duration : 4mn 20s
Bit rate : 32.0 Mbps
Maximum bit rate : 7 200 Kbps
Width : 720 pixels
Height : 480 pixels
Display aspect ratio : 16:9
Frame rate : 29.970 fps
Standard : NTSC
Color space : YUV
Chroma subsampling : 4:2:0
Bit depth : 8 bits
Scan type : Interlaced
Scan order : Top Field First
Compression mode : Lossy
Bits/(Pixel*Frame) : 3.087
Stream size : 992 MiB (97%)

Audio #1
ID : 189 (0xBD)-128 (0x80)
Format : AC-3
Format/Info : Audio Coding 3
Mode extension : CM (complete main)
Muxing mode : DVD-Video
Duration : 4mn 19s
Bit rate mode : Constant
Bit rate : 192 Kbps
Channel(s) : 2 channels
Channel positions : Front: L R
Sampling rate : 48.0 KHz
Bit depth : 16 bits
Compression mode : Lossy
Stream size : 5.95 MiB (1%)

Audio #2
ID : 189 (0xBD)-129 (0x81)
Format : AC-3
Format/Info : Audio Coding 3
Mode extension : CM (complete main)
Muxing mode : DVD-Video
Duration : 4mn 19s
Bit rate mode : Constant
Bit rate : 192 Kbps
Channel(s) : 2 channels
Channel positions : Front: L R
Sampling rate : 48.0 KHz
Bit depth : 16 bits
Compression mode : Lossy
Stream size : 5.95 MiB (1%)


Трекер:  [ 16-Мар-2014 17:19 ]

  

Скачать .torrent

Размер .torrent файла 30 KB


Размер: 6.03 GB
Хэш (hash) релиза: 9464a160967d8b23a9d70c5891570a4ac44ec44b

Торренты, похожие на Machi Gurumi no Wana: Hakudaku ni Mamireta Shitai В западне города: Страшно до жути скачать торрент

Форум Название Автор Размер S L Добавлен
Хентай, порно и эротические мультфильмы ·· Machi Gurumi no Wana: Hakudaku ni Mamireta Shitai / В западне города: Страшно до жути (PoRO) (ep. 1-4 of 4) [cen] [2010 г., Anal, Big tits, Blowjob, Female students, Group, Incest, Rape, School, Small tits, Titsjob, 4xDVD5] [jap] Galfimbul 98593587209.18 GB 0 0 1415228805

02:06

6-Ноя-14

Хентай | С цензурой ·· Machi Gurumi no Wana: Hakudaku ni Mamireta Shitai / В западне города: страшно до жути (PoRO, SYRUP) (ep. 1-3 of >3) [cen] [2010-14 г.г., Incest, Blowjob, Anal, Rape, Group, School, Female students, DVDRip][jap/eng(2)/rus][720p] Galfimbul 12249878111.14 GB 1 2 1396100923

16:48

29-Мар-14

Хентай | С цензурой ·· Machi Gurumi no Wana: Hakudaku ni Mamireta Shitai / В западне города: страшно до жути (PoRO, SYRUP) (ep. 1-3 of 3) [cen] [2010-2014 г. incest, blowjob, anal, rape, group, school, female students, DVDRip] [jap / eng / rus (2)] Galfimbul 612065183584 MB 0 0 1394293844

18:50

8-Мар-14

Хентай | С цензурой ·· Machi Gurumi no Wana: Hakudaku ni Mamireta Shitai / В западне города: страшно до жути (PoRO, SYRUP) (ep. 1-3 of 3) [cen] [2010 г. incest, blowjob, anal, rape, group, school, female students, DVDRip] [jap / eng (2) / rus (2)] Galfimbul 611951874584 MB 0 0 1391269630

18:47

1-Фев-14

Хентай | Без цензуры ·· Machi Gurumi no Wana: Hakudaku ni Mamireta Shitai / В западне города: Страшно до жути (PoRO) (ep. 1-2 of 2) [cen] [2010 г., Anal, Blowjob, Female students, Group, Incest, Rape, School, DVD5] [jap] spider91 31831490562.96 GB 1 2 1364071699

23:48

23-Мар-13

Хентай, порно и эротические мультфильмы ·· Machi Gurumi no Wana: Hakudaku ni Mamireta Shitai / В западне города: страшно до жути (PoRO, SYRUP) (ep. 1-2 of 2) [cen] [2010 г. incest, blowjob, anal, rape, group, school, female students, DVDRip] [jap / eng] Galfimbul 297989509284 MB 0 0 1349954820

14:27

11-Окт-12

Еще никто не оставлял запись к записи скачать торрент Machi Gurumi no Wana: Hakudaku ni Mamireta Shitai В западне города: Страшно до жути . Будь первым!

!Обратная связь