Скачать порно через торрент Tokubetsu Jugyou 3 SLG The Animation Частные уроки 3 UnionPeer.org бесплатно онлайн HD качество

Скачать новое порно 2015, 2014 новинки через торрент UnionPeer.org

Порно торрент бесплатно ЮнионПир.орг

Если у вас наблюдаются проблемы со скриншотами, переходом по ссылками, скачиванием торрентов - проблемы в блокировщике рекламы AdBlock. #хорошегоДня!


Статистика раздачи
Размер:  1.14 GB   |    Зарегистрирован:  3 года 5 месяцев   |    .torrent скачан:  374 раза   |   
Раздают:  2  
   
Загрузка...
 
Автор Сообщение

Galfimbul

avatar Galfimbul


Tokubetsu Jugyou 3 SLG The Animation / 特別授業3SLG THE ANIMATION / Частные уроки 3 / Специальный Класс 3 SLG

Год производства: 2014 г.
Жанр: BDSM, Oral sex, School, Rape
Серии: ep. 1
Продолжительность: 1х~21 min + 9 min трейлеры
Цензура: Есть

Озвучка: Японская (Оригинальная)

Автор оригинала: Bishop
Студия: Hills

Описание RUS: В дорогой престижный колледж "Свящённые девы" попасть могут далеко не все, но нашему герою Томои повезло, ведь её пришло приглашение. От такого шанса не отказываются и он не задумываясь мчится туда. Не успев постучатся в дверь, на пороге его встречает очаровательная девушка, приглашает зайти, предлагает чашечку горячего чая и подождать немного. Оказалось что в чай что-то подмешали и Томоя просыпается в неизвестном месте, похожий на публичный дом. Он слышит следующее "Поздравляю! Вы приняты в колледж. Первым вашим заданием будет удовлетворить эту девушку". Поначалу его шок сменился на наслаждение. Его миссия заключается в следующем - не проявлять никакого сочувствия к девушкам, ведь отныне они его рабыни и нужно вести себя как хозяин с рабыней...

Описание ENG: In expensive prestigious college "Holy Virgin" can not get everything, but our hero Tomoe lucky because her invitation came . From this chance not refuse and he did not hesitate to rush there. Not having to knock on the door, on the threshold of his encounters charming girl invites go, offers a hot cup of tea and wait a little. It turned out that something spiked tea and Tomoya wakes up in an unknown place, like a brothel. He hears the following "Congratulations, you have taken in college. Your first task will be to meet this girl." At first, his shock was replaced by pleasure. Its mission is to - not to show any sympathy for the girls, because they were now his slave and to behave as a slave master...

Информационные ссылки: AniDB - MAL - World Art - ХентайМаг

Качество видео: DVD5
Формат видео: DVD Video
Видео кодек: MPEG2
Аудио кодек: AC3
Видео: 720х480, (16:9), 29,970 кадров/сек, ~ 5106 Кбит/сек, NTSC
Аудио: JAP, AC-3, 2 канала, 192 Кбит/сек, 48,0 КГц
Общее
Полное имя : G:\VIDEO_TS\VTS_01_1.VOB
Формат : MPEG-PS
Размер файла : 1024 Мбайт
Продолжительность : 26 м.
Общий поток : 5405 Кбит/сек

Видео
Идентификатор : 224 (0xE0)
Формат : MPEG Video
Версия формата : Version 2
Профиль формата : Main@Main
Параметр BVOP формата : Да
Параметр матрицы формата : Выборочная
Параметр GOP формата : M=3, N=15
Продолжительность : 26 м.
Битрейт : 5106 Кбит/сек
Максимальный битрейт : 9000 Кбит/сек
Ширина : 720 пикселей
Высота : 480 пикселей
Соотношение сторон : 16:9
Частота кадров : 29,970 кадров/сек
Стандарт вещания : NTSC
Цветовое пространство : YUV
Субдискретизация насыщенности : 4:2:0
Битовая глубина : 8 бит
Тип развёртки : Чересстрочная
Порядок развёртки : Верхнее поле первое
Метод сжатия : С потерями
Бит/(Пиксели*Кадры) : 0.493
Временной код первого кадра : 01:00:00:00
Оригинал временного кода : Group of pictures header
Размер потока : 967 Мбайт (94%)

Аудио
Идентификатор : 189 (0xBD)-128 (0x80)
Формат : AC-3
Формат/Информация : Audio Coding 3
Расширение режима : CM (complete main)
Параметр Endianness формата : Big
Режим смешивания : DVD-Video
Продолжительность : 26 м.
Вид битрейта : Постоянный
Битрейт : 192 Кбит/сек
Каналы : 2 канала
Расположение каналов : Front: L R
Частота : 48,0 КГц
Битовая глубина : 16 бит
Метод сжатия : С потерями
Задержка видео : -66 мс.
Размер потока : 36,4 Мбайт (4%)

Меню


Трекер:  [ 14-Мар-2014 16:09 ]

  

Скачать .torrent

Размер .torrent файла 12 KB


Размер: 1.14 GB
Хэш (hash) релиза: 9147a782d339cfc283758c109043a2083a543d5d

Торренты, похожие на Tokubetsu Jugyou 3 SLG The Animation Частные уроки 3 скачать торрент

Форум Название Автор Размер S L Добавлен
Хентай, порно и эротические мультфильмы ·· Tokubetsu Jugyou 3 SLG The Animation / Частные уроки 3 / Специальный Класс 3 SLG (Murakami Teruaki, Hills) (ep. 1-2 of 2) [cen] [2014 г., BDSM, Group sex, Oral sex, School, Rape, 2х DVD5] [jap] Galfimbul 23368099462.18 GB 2 0 1410089507

14:31

7-Сен-14

Еще никто не оставлял запись к записи скачать торрент Tokubetsu Jugyou 3 SLG The Animation Частные уроки 3 . Будь первым!

!Обратная связь