Скачать через торрент XI Зимние Паралимпийские Игры 2014. Лыжные гонки. Мужчины, Женщины. Спринт 1 км. Полуфиналы и финалы Фильм бесплатно в хорошем качестве torrent

Скачивайте на UnionPeer.org фильмы через торрент без регистрации. Новинки кино в хорошем качестве через торрент. На UnionPeer.org можно скачать через торрент фильмы 2014 и 2015 годов. Самые новые фильмы.

Скачать торрент XI Зимние Паралимпийские Игры 2014. Лыжные гонки. Мужчины, Женщины. Спринт 1 км. Полуфиналы и финалы бесплатно через .torrent фильм мультфильм сериал

Если у вас наблюдаются проблемы со скриншотами, переходом по ссылками, скачиванием торрентов - проблемы в блокировщике рекламы AdBlock. #хорошегоДня!


Статистика раздачи
Размер:  1.6 GB   |    Зарегистрирован:  3 года 7 месяцев   |    .torrent скачан:  44 раза   |   
Раздают:  1  
   
Загрузка...
 
Автор Сообщение

Galfimbul

avatar Galfimbul


XI Зимние Паралимпийские Игры 2014. Лыжные гонки. Мужчины, Женщины. Спринт 1 км

Вид спорта: Лыжные гонки
Комментарий: Профессиональный
Язык комментариев: Русский (Руслан Гатаулин)
Описание: XI Зимние Паралимпийские Игры 2014. Лыжные гонки. Мужчины, Женщины. Спринт 1 км.

В раздаче
Спринт 1 км, мужчины, сидя, Полуфиналы
Спринт 1 км, женщины, сидя, Полуфиналы
Спринт свободным стилем 1 км, мужчины, стоя, Полуфиналы
Спринт свободным стилем 1 км, женщины, стоя, Полуфиналы
Спринт свободным стилем 1 км, мужчины, с нарушением зрения, Полуфиналы
Спринт свободным стилем 1 км, женщины, с нарушением зрения, Полуфинал
Спринт 1 км, мужчины, сидя, Финал
Спринт 1 км, женщины, сидя, Финал
Спринт свободным стилем 1 км, мужчины, стоя, Финал
Спринт свободным стилем 1 км, женщины, стоя, Финал
Спринт свободным стилем 1 км, мужчины, с нарушением зрения, Финал
Спринт свободным стилем 1 км, женщины, с нарушением зрения, Финал
Автор рипа: sanchez2011
Качество: SATRip
Формат: AVI
Видео кодек: XviD
Аудио кодек: MP3
Видео: MPEG-4 Visual (H263) 704x448 (16:10) 25.00fps 1700kbps
Аудио: MPEG Audio Layer 3 48000Hz stereo 128kbps
Продолжительность: 02:05:02
GeneralComplete name : E:\Паралимпиада 2014\XI Зимние Паралимпийские Игры 2014 12.03.2014 Лыжные гонки. Мужчины, женщины. Спринт 1 км.aviFormat : AVIFormat/Info : Audio Video InterleaveFile size : 1.60 GiBDuration : 2h 5mnOverall bit rate : 1 831 KbpsWriting application : VirtualDubMod 1.5.10.2 (build 2540/release)Writing library : VirtualDubMod build 2540/release

VideoID : 0Format : MPEG-4 VisualFormat profile : Advanced Simple@L5Format settings, BVOP : 1Format settings, QPel : NoFormat settings, GMC : No warppointsFormat settings, Matrix : Default (H.263)Codec ID : XVIDCodec ID/Hint : XviDDuration : 2h 5mnBit rate : 1 693 KbpsWidth : 704 pixelsHeight : 448 pixelsDisplay aspect ratio : 16:10Frame rate : 25.000 fpsColor space : YUVChroma subsampling : 4:2:0Bit depth : 8 bitsScan type : ProgressiveCompression mode : LossyBits/(Pixel*Frame) : 0.215Stream size : 1.48 GiB (92%)Writing library : XviD 64

AudioID : 1Format : MPEG AudioFormat version : Version 1Format profile : Layer 3Mode : Joint stereoMode extension : MS StereoCodec ID : 55Codec ID/Hint : MP3Duration : 2h 5mnBit rate mode : ConstantBit rate : 128 KbpsChannel(s) : 2 channelsSampling rate : 48.0 KHzCompression mode : LossyStream size : 114 MiB (7%)Alignment : Aligned on interleavesInterleave, duration : 40 ms (1.00 video frame)Interleave, preload duration : 504 msWriting library : LAME3.100


Трекер:  [ 13-Мар-2014 05:30 ]

  

Скачать .torrent

Размер .torrent файла 16 KB


Размер: 1.6 GB
Хэш (hash) релиза: 193a80206070296fc85227ae63e1be0d8111024d
Подписка на обновления:

Еще никто не оставлял запись к записи скачать торрент XI Зимние Паралимпийские Игры 2014. Лыжные гонки. Мужчины, Женщины. Спринт 1 км. Полуфиналы и финалы . Будь первым!

!Обратная связь