Скачать через торрент XI Зимние Паралимпийские Игры 2014. Дневник Паралимпиады Фильм бесплатно в хорошем качестве torrent

Скачивайте на UnionPeer.org фильмы через торрент без регистрации. Новинки кино в хорошем качестве через торрент. На UnionPeer.org можно скачать через торрент фильмы 2014 и 2015 годов. Самые новые фильмы.

Скачать торрент XI Зимние Паралимпийские Игры 2014. Дневник Паралимпиады бесплатно через .torrent фильм мультфильм сериал

Если у вас наблюдаются проблемы со скриншотами, переходом по ссылками, скачиванием торрентов - проблемы в блокировщике рекламы AdBlock. #хорошегоДня!


Статистика раздачи
Размер:  624 MB   |    Зарегистрирован:  3 года 7 месяцев   |    .torrent скачан:  49 раз   |   
Раздают:  1  
   
Загрузка...
 
Автор Сообщение

Galfimbul

avatar Galfimbul


XI Зимние Паралимпийские Игры 2014. Дневник Паралимпиады (Эфир от 12.03.2014)

Комментарий: Профессиональный
Язык комментариев: Русский
Ведущий: Дмитрий Губерниев
Продолжительность: 00:47:38
Описание: Дневник XI Зимних Паралимпийских Игр 2014 в Сочи. Эфир от 12 марта 2014 года. Содержание - на скриншотах.
Автор рипа: sanchez2011
Качество: SATRip
Формат: AVI
Видео кодек: XviD
Аудио кодек: MP3
Видео: MPEG-4 Visual (H263) 704x448 (16:10) 25.00fps 1700kbps
Аудио: MPEG Audio Layer 3 48000Hz stereo 128kbps
GeneralComplete name : E:\Паралимпиада 2014\XI Зимние Паралимпийские Игры 2014. Дневник Паралимпиады (Эфир от 12.03.2014).aviFormat : AVIFormat/Info : Audio Video InterleaveFile size : 624 MiBDuration : 47mn 38sOverall bit rate : 1 831 KbpsWriting application : VirtualDubMod 1.5.10.2 (build 2540/release)Writing library : VirtualDubMod build 2540/release

VideoID : 0Format : MPEG-4 VisualFormat profile : Advanced Simple@L5Format settings, BVOP : 2Format settings, QPel : NoFormat settings, GMC : No warppointsFormat settings, Matrix : Default (H.263)Codec ID : XVIDCodec ID/Hint : XviDDuration : 47mn 38sBit rate : 1 693 KbpsWidth : 704 pixelsHeight : 448 pixelsDisplay aspect ratio : 16:10Frame rate : 25.000 fpsColor space : YUVChroma subsampling : 4:2:0Bit depth : 8 bitsScan type : ProgressiveCompression mode : LossyBits/(Pixel*Frame) : 0.215Stream size : 577 MiB (92%)Writing library : XviD 64

AudioID : 1Format : MPEG AudioFormat version : Version 1Format profile : Layer 3Mode : Joint stereoMode extension : MS StereoCodec ID : 55Codec ID/Hint : MP3Duration : 47mn 38sBit rate mode : ConstantBit rate : 128 KbpsChannel(s) : 2 channelsSampling rate : 48.0 KHzCompression mode : LossyStream size : 43.6 MiB (7%)Alignment : Aligned on interleavesInterleave, duration : 40 ms (1.00 video frame)Interleave, preload duration : 504 msWriting library : LAME3.100


Трекер:  [ 13-Мар-2014 00:30 ]

  

Скачать .torrent

Размер .torrent файла 12 KB


Размер: 624 MB
Хэш (hash) релиза: a81b20fbac7c7a7f9fe2897ebdc8e47427a537e2
Подписка на обновления:

Еще никто не оставлял запись к записи скачать торрент XI Зимние Паралимпийские Игры 2014. Дневник Паралимпиады . Будь первым!

!Обратная связь