Скачать порно через торрент Sugu to H. UnionPeer.org бесплатно онлайн HD качество

Скачать новое порно 2015, 2014 новинки через торрент UnionPeer.org

Порно торрент бесплатно ЮнионПир.орг

Если у вас наблюдаются проблемы со скриншотами, переходом по ссылками, скачиванием торрентов - проблемы в блокировщике рекламы AdBlock. #хорошегоДня!


Статистика раздачи
Размер:  286 MB   |    Зарегистрирован:  3 года 5 месяцев   |    .torrent скачан:  1683 раза   |   
Раздают:  2  
   
Загрузка...
 
Автор Сообщение

Galfimbul

avatar Galfimbul


Sugu to H. /

Год производства: 2014 г.
Жанр: footjob, classic sex, doggy style
Продолжительность: 18:26
Цензура: Есть во всех файлах

Язык: Японский
Озвучка: Оригинальная
Субтитры: Встроенные неотключаемые (хардсаб)

Студия: TOFU SOFT

Описание: "It is an unbelievable future--."

* 3D ecchi scenes with real time camera operation, cut-to shots, and effects filters.

* Choose effects like shakeycam, video camera style, lens flare, etc.

* Includes all the classic hentai pillars: onani, footjob, fellatio, titwank, classic sex, ekiben, doggy style, more!

* The female character is fully voiced.

* Based on the likeness of Suguh* Kirigay* of Sw*rd Art Onl*ne.

Качество видео: GameRip
Разрешение видео: 720p
Формат видео: MPEG
Видео кодек: H.264/AVC
Аудио кодек: MP3
Видео: MPEG4 Video (H264) 1280x720 30fps 1963kbps
Аудио 1: MP3 44100Hz stereo 192kbps
ideo
ID : 0
Format : AVC
Format/Info : Advanced Video Codec
Format profile : Main@L5.1
Format settings, CABAC : Yes
Format settings, ReFrames : 1 frame
Codec ID : H264
Duration : 18mn 26s
Bit rate : 1 963 Kbps
Width : 1 280 pixels
Height : 720 pixels
Display aspect ratio : 16:9
Frame rate : 30.000 fps
Color space : YUV
Chroma subsampling : 4:2:0
Bit depth : 8 bits
Scan type : Progressive
Bits/(Pixel*Frame) : 0.071
Stream size : 259 MiB (91%)

Audio
ID : 1
Format : MPEG Audio
Format version : Version 1
Format profile : Layer 3
Codec ID : 55
Codec ID/Hint : MP3
Duration : 18mn 26s
Bit rate mode : Constant
Bit rate : 192 Kbps
Channel(s) : 2 channels
Sampling rate : 44.1 KHz
Compression mode : Lossy
Stream size : 25.3 MiB (9%)
Alignment : Split accross interleaves
Interleave, duration : 34 ms (1.01 video frame)
Interleave, preload duration : 114 ms
Writing library : LAMELAME_MAJOR_VERSI


Трекер:  [ 11-Мар-2014 21:29 ]

  

Скачать .torrent

Размер .torrent файла 11 KB


Размер: 286 MB
Хэш (hash) релиза: 56d4457d51eeb0275d8838b77bb1cf673a86c48f

Еще никто не оставлял запись к записи скачать торрент Sugu to H. . Будь первым!

!Обратная связь