Скачать порно через торрент Dangerous Mask Spider Monster,Bagigrum,Catching Princess,INDIVIDUAL I,II,Tragic! Young Wif UnionPeer.org бесплатно онлайн HD качество

Скачать новое порно 2015, 2014 новинки через торрент UnionPeer.org

Порно торрент бесплатно ЮнионПир.орг

Если у вас наблюдаются проблемы со скриншотами, переходом по ссылками, скачиванием торрентов - проблемы в блокировщике рекламы AdBlock. #хорошегоДня!


Статистика раздачи
Размер:  1.33 GB   |    Зарегистрирован:  3 года 5 месяцев   |    .torrent скачан:  1075 раз   |   
Раздают:  1  
   
Загрузка...
 
Автор Сообщение

Galfimbul

avatar Galfimbul



Dangerous Mask Spider Monster / 危険なマスクスパイダーモンスター Новинка !!!!!!!

Год производства: 2013 г.
Жанр: Transformation heroine school / school SF horror
Продолжительность: 12:05
Цензура: Есть во всех файлах

Язык: Японский
Озвучка: Оригинальная
Описание: про сексуальную девушку и ее секс с мужчинами, а потом и с огромным насекомым.

Качество видео: GameRip
Формат видео: WMV
Видео кодек: Windows Media
Аудио кодек: WMA
Видео: Windows Media Video 9 896x596 30fps 3047kbps
Аудио 1: WMA Pro 32000Hz stereo 32kbps
Video
ID : 1
Format : VC-1
Format profile : MP@HL
Codec ID : WMV3
Codec ID/Info : Windows Media Video 9
Codec ID/Hint : WMV3
Description of the codec : Windows Media Video 9
Duration : 12mn 5s
Bit rate mode : Variable
Bit rate : 3 047 Kbps
Width : 896 pixels
Height : 596 pixels
Display aspect ratio : 3:2
Frame rate : 30.024 fps
Bit depth : 8 bits
Scan type : Progressive
Compression mode : Lossy
Bits/(Pixel*Frame) : 0.190
Stream size : 264 MiB (97%)
Language : Latvian

Audio
ID : 2
Format : WMA
Format profile : Pro
Codec ID : 162
Codec ID/Info : Windows Media Audio
Description of the codec : Windows Media Audio 10 Professional - 32 kbps, 32 kHz, 2 channel 16 bit (A/V) 1-pass CBR
Duration : 12mn 5s
Bit rate mode : Constant
Bit rate : 32.0 Kbps
Channel(s) : 2 channels
Sampling rate : 32.0 KHz
Bit depth : 16 bits
Stream size : 2.77 MiB (1%)

Bagigrum / New

Год производства: 2013 г.
Жанр: Cosplay, SF Fantasy, Violence, Tentacles, Big Breasts
Продолжительность: 11:57
Цензура: Есть во всех файлах

Язык: Японский
Озвучка: Оригинальная
Описание:
про двух подружек, которые во время своего путешествия по подземному гроту встречают странные похотливые существа...

Качество видео: GameRip
Формат видео: WMV
Видео кодек: Windows Media
Аудио кодек: WMA
Видео: Windows Media Video 9 900x600 30fps 2644kbps
Аудио 1: WMA Pro 32000Hz stereo 32kbps
Video
ID : 1
Format : VC-1
Format profile : MP@HL
Codec ID : WMV3
Codec ID/Info : Windows Media Video 9
Codec ID/Hint : WMV3
Description of the codec : Windows Media Video 9
Duration : 11mn 57s
Bit rate mode : Variable
Bit rate : 2 645 Kbps
Width : 900 pixels
Height : 600 pixels
Display aspect ratio : 3:2
Frame rate : 30.000 fps
Bit depth : 8 bits
Scan type : Progressive
Compression mode : Lossy
Bits/(Pixel*Frame) : 0.163
Stream size : 226 MiB (96%)
Language : Latvian

Audio
ID : 2
Format : WMA
Format profile : Pro
Codec ID : 162
Codec ID/Info : Windows Media Audio
Description of the codec : Windows Media Audio 10 Professional - 32 kbps, 32 kHz, 2 channel 16 bit (A/V) 1-pass CBR
Duration : 11mn 57s
Bit rate mode : Constant
Bit rate : 32.0 Kbps
Channel(s) : 2 channels
Sampling rate : 32.0 KHz
Bit depth : 16 bits
Stream size : 2.74 MiB (1%

Catching Princess / プリンセスキャッチ
Год производства: 2013 г.
Жанр: Queen/Princess Cosplay, SF Fantasy,Monsters
Продолжительность: 10:23
Цензура: Есть во всех файлах

Язык: Японский
Озвучка: Оригинальная
Студия: AKATA | DLLSite

Описание:Принцесса попала в логово чудовищ.

Качество видео: GameRip
Формат видео: WMV
Видео кодек: Windows Media
Аудио кодек: WMA
Видео: Windows Media Video 9 908x604 30fps 4446kbps
Аудио 1: WMA Pro 32000Hz stereo 32kbps
Video
ID : 1
Format : VC-1
Format profile : MP@HL
Codec ID : WMV3
Codec ID/Info : Windows Media Video 9
Codec ID/Hint : WMV3
Description of the codec : Windows Media Video 9
Duration : 10mn 23s
Bit rate mode : Variable
Bit rate : 4 447 Kbps
Width : 908 pixels
Height : 604 pixels
Display aspect ratio : 3:2
Frame rate : 30.000 fps
Bit depth : 8 bits
Scan type : Progressive
Compression mode : Lossy
Bits/(Pixel*Frame) : 0.270
Stream size : 331 MiB (97%)
Language : Latvian

Audio
ID : 2
Format : WMA
Format profile : Pro
Codec ID : 162
Codec ID/Info : Windows Media Audio
Description of the codec : Windows Media Audio 10 Professional - 32 kbps, 32 kHz, 2 channel 16 bit (A/V) 1-pass CBR
Duration : 10mn 23s
Bit rate mode : Constant
Bit rate : 32.0 Kbps
Channel(s) : 2 channels
Sampling rate : 32.0 KHz
Bit depth : 16 bits
Stream size : 2.38 MiB (1%)

INDIVIDUAL II / New

Год производства: 2013 г.
Жанр: SF Horror ,Hard-boiled tentacles, Interspecies Sex
Продолжительность: 15:20
Цензура: Есть во всех файлах

Язык: Японский
Озвучка: Оригинальная
Описание:
"Individual 2" про космическое путешествие трех девушек полное эротических неожиданностей и приключений, в котором они встречаются с разными инопланетными формами жизни и для того, чтобы получше их узнать спариваются с ними.

Качество видео: GameRip
Формат видео: WMV
Видео кодек: Windows Media
Аудио кодек: WMA
Видео: Windows Media Video 9 900x600 30fps 2168kbps
Аудио 1: WMA Pro 32000Hz stereo 32kbps
Video
ID : 1
Format : VC-1
Format profile : MP@HL
Codec ID : WMV3
Codec ID/Info : Windows Media Video 9
Codec ID/Hint : WMV3
Description of the codec : Windows Media Video 9
Duration : 15mn 20s
Bit rate mode : Variable
Bit rate : 2 168 Kbps
Width : 900 pixels
Height : 600 pixels
Display aspect ratio : 3:2
Frame rate : 30.000 fps
Bit depth : 8 bits
Scan type : Progressive
Compression mode : Lossy
Bits/(Pixel*Frame) : 0.134
Stream size : 238 MiB (96%)
Language : Latvian

Audio
ID : 2
Format : WMA
Format profile : Pro
Codec ID : 162
Codec ID/Info : Windows Media Audio
Description of the codec : Windows Media Audio 10 Professional - 32 kbps, 32 kHz, 2 channel 16 bit (A/V) 1-pass CBR
Duration : 15mn 20s
Bit rate mode : Constant
Bit rate : 32.0 Kbps
Channel(s) : 2 channels
Sampling rate : 32.0 KHz
Bit depth : 16 bits
Stream size : 3.51 MiB (1%)

INDIVIDUAL
Год производства: 2013 г.
Жанр: Polygon, Anime, SF Horror ,Monsters
Продолжительность: 6:34
Цензура: Есть во всех файлах

Язык: Японский
Озвучка: Оригинальная
Студия: AKATA | DLLSite
Описание: На борт коробля проник неизвестный паразит, и патрульная решила в одниночку найти его.

Качество видео: GameRip
Формат видео: WMV
Видео кодек: Windows Media
Аудио кодек: WMA
Видео: Windows Media Video 9 908x600 30fps 2320kbps
Аудио 1: WMA Pro 32000Hz stereo 32kbps
Video
ID : 1
Format : VC-1
Format profile : MP@HL
Codec ID : WMV3
Codec ID/Info : Windows Media Video 9
Codec ID/Hint : WMV3
Description of the codec : Windows Media Video 9
Duration : 6mn 34s
Bit rate mode : Variable
Bit rate : 2 320 Kbps
Width : 908 pixels
Height : 600 pixels
Display aspect ratio : 3:2
Frame rate : 30.000 fps
Bit depth : 8 bits
Scan type : Progressive
Compression mode : Lossy
Bits/(Pixel*Frame) : 0.142
Stream size : 109 MiB (96%)
Language : Latvian

Audio
ID : 2
Format : WMA
Format profile : Pro
Codec ID : 162
Codec ID/Info : Windows Media Audio
Description of the codec : Windows Media Audio 10 Professional - 32 kbps, 32 kHz, 2 channel 16 bit (A/V) 1-pass CBR
Duration : 6mn 34s
Bit rate mode : Constant
Bit rate : 32.0 Kbps
Channel(s) : 2 channels
Sampling rate : 32.0 KHz
Bit depth : 16 bits
Stream size : 1.51 MiB (1%)

Tragic! Young Wife / 悲劇!若妻
Год производства: 2013 г.
Жанр: Polygon Anime, Married Woman, Rape Golden Shower/Urination

Продолжительность: 9:03
Цензура: Есть во всех файлах

Язык: Японский
Озвучка: Оригинальная
Студия: AKATA | DLLSite

Описание:Девушка решила сходить в не положеном месте, и за это ее прохожие наказали

Качество видео: GameRip
Формат видео: WMV
Видео кодек: Windows Media
Аудио кодек: WMA
Видео: Windows Media Video 9 944x664 30fps 2301kbps
Аудио 1: WMA Pro 32000Hz stereo 32kbps
Video
ID : 1
Format : VC-1
Format profile : MP@HL
Codec ID : WMV3
Codec ID/Info : Windows Media Video 9
Codec ID/Hint : WMV3
Description of the codec : Windows Media Video 9
Duration : 9mn 3s
Bit rate mode : Variable
Bit rate : 2 301 Kbps
Width : 944 pixels
Height : 664 pixels
Display aspect ratio : 1.422
Frame rate : 30.000 fps
Bit depth : 8 bits
Scan type : Progressive
Compression mode : Lossy
Bits/(Pixel*Frame) : 0.122
Stream size : 149 MiB (96%)
Language : Latvian

Audio
ID : 2
Format : WMA
Format profile : Pro
Codec ID : 162
Codec ID/Info : Windows Media Audio
Description of the codec : Windows Media Audio 10 Professional - 32 kbps, 32 kHz, 2 channel 16 bit (A/V) 1-pass CBR
Duration : 9mn 3s
Bit rate mode : Constant
Bit rate : 32.0 Kbps
Channel(s) : 2 channels
Sampling rate : 32.0 KHz
Bit depth : 16 bits
Stream size : 2.07 MiB (1%)

Приятного просмотра! Пожалуйста, поддержите раздачу!
Спасибо за Ваши будущие комментарии!

Трекер:  [ 11-Мар-2014 21:26 ]

  

Скачать .torrent

Размер .torrent файла 14 KB


Размер: 1.33 GB
Хэш (hash) релиза: d96e9ec02409fc073ca60cfc4d19a44f66a39c51

Еще никто не оставлял запись к записи скачать торрент Dangerous Mask Spider Monster,Bagigrum,Catching Princess,INDIVIDUAL I,II,Tragic! Young Wif . Будь первым!

!Обратная связь