Скачать через торрент XI Зимние Паралимпийские Игры 2014. Биатлон. Мужчины стоя 12,5 км. Женщины стоя 10 км Россия 2 Фильм бесплатно в хорошем качестве torrent

Скачивайте на UnionPeer.org фильмы через торрент без регистрации. Новинки кино в хорошем качестве через торрент. На UnionPeer.org можно скачать через торрент фильмы 2014 и 2015 годов. Самые новые фильмы.

Скачать торрент XI Зимние Паралимпийские Игры 2014. Биатлон. Мужчины стоя 12,5 км. Женщины стоя 10 км Россия 2 бесплатно через .torrent фильм мультфильм сериал

Если у вас наблюдаются проблемы со скриншотами, переходом по ссылками, скачиванием торрентов - проблемы в блокировщике рекламы AdBlock. #хорошегоДня!


Статистика раздачи
Размер:  869 MB   |    Зарегистрирован:  3 года 6 месяцев   |    .torrent скачан:  42 раза   |   
Раздают:  1  
   
Загрузка...
 
Автор Сообщение

Galfimbul

avatar Galfimbul


XI Зимние Паралимпийские Игры 2014. Биатлон. Мужчины стоя 12,5 км. Женщины стоя 10 км

Вид спорта: Биатлон
Комментарий: Профессиональный
Язык комментариев: Русский (Дмитрий Губерниев)
Описание: XI Зимние Паралимпийские Игры 2014. Биатлон. Мужчины стоя 12,5 км. Женщины стоя 10 км.
Автор рипа: sanchez2011
Качество: SATRip
Формат: AVI
Видео кодек: XviD
Аудио кодек: MP3
Видео: MPEG-4 Visual (H263) 720x448 (16:10) 25.00fps 1700kbps
Аудио: MPEG Audio Layer 3 48000Hz stereo 128kbps
Продолжительность: 01:06:17
GeneralComplete name : E:\Паралимпиада 2014\XI Зимние Паралимпийские Игры 2014 11.03.2014 Биатлон. Мужчины стоя 12,5 км. Женщины стоя 10 км.aviFormat : AVIFormat/Info : Audio Video InterleaveFile size : 869 MiBDuration : 1h 6mnOverall bit rate : 1 833 KbpsWriting application : VirtualDubMod 1.5.10.2 (build 2540/release)Writing library : VirtualDubMod build 2540/release

VideoID : 0Format : MPEG-4 VisualFormat profile : Advanced Simple@L5Format settings, BVOP : 2Format settings, QPel : NoFormat settings, GMC : No warppointsFormat settings, Matrix : Default (H.263)Codec ID : XVIDCodec ID/Hint : XviDDuration : 1h 6mnBit rate : 1 695 KbpsWidth : 720 pixelsHeight : 448 pixelsDisplay aspect ratio : 16:10Frame rate : 25.000 fpsColor space : YUVChroma subsampling : 4:2:0Bit depth : 8 bitsScan type : ProgressiveCompression mode : LossyBits/(Pixel*Frame) : 0.210Stream size : 804 MiB (92%)Writing library : XviD 64

AudioID : 1Format : MPEG AudioFormat version : Version 1Format profile : Layer 3Mode : Joint stereoMode extension : MS StereoCodec ID : 55Codec ID/Hint : MP3Duration : 1h 6mnBit rate mode : ConstantBit rate : 128 KbpsChannel(s) : 2 channelsSampling rate : 48.0 KHzCompression mode : LossyStream size : 60.7 MiB (7%)Alignment : Aligned on interleavesInterleave, duration : 40 ms (1.00 video frame)Interleave, preload duration : 504 msWriting library : LAME3.100


Трекер:  [ 11-Мар-2014 14:00 ]

  

Скачать .torrent

Размер .torrent файла 17 KB


Размер: 869 MB
Хэш (hash) релиза: 107cf594711de7e37adbacd50ae52852a400b254
Подписка на обновления:

Торренты, похожие на XI Зимние Паралимпийские Игры 2014. Биатлон. Мужчины стоя 12,5 км. Женщины стоя 10 км Россия 2 скачать торрент

Форум Название Автор Размер S L Добавлен
Зимние Олимпийские игры в Сочи 2014 ·· XI Зимние Паралимпийские Игры 2014. Биатлон. Мужчины стоя 12,5 км. Женщины стоя 10 км. Спортсмены с нарушением зрения / Россия 2 [11.03.2014, Биатлон, SATRip, AVI, XviD] Galfimbul 672223232641 MB 0 0 1394541068

15:31

11-Мар-14

Еще никто не оставлял запись к записи скачать торрент XI Зимние Паралимпийские Игры 2014. Биатлон. Мужчины стоя 12,5 км. Женщины стоя 10 км Россия 2 . Будь первым!

!Обратная связь