Скачать порно через торрент Swing Out Sisters UnionPeer.org бесплатно онлайн HD качество

Скачать новое порно 2015, 2014 новинки через торрент UnionPeer.org

Порно торрент бесплатно ЮнионПир.орг

Если у вас наблюдаются проблемы со скриншотами, переходом по ссылками, скачиванием торрентов - проблемы в блокировщике рекламы AdBlock. #хорошегоДня!


Статистика раздачи
Размер:  2.12 GB   |    Зарегистрирован:  3 года 8 месяцев   |    .torrent скачан:  557 раз   |   
Раздают:  1  
   
Загрузка...
 
Автор Сообщение

Galfimbul

avatar Galfimbul


Swing Out Sisters (Complete Version) / スウィング アウト シスターズ / Сестры-свингеры (Полная версия)

Год производства: 2011 г.
Жанр: Anal sex, Big tits, Oral sex, Romance, School, Incest, Maids
Серии: ep. 1 + SP
Продолжительность: 1х + SP ~120 min
Цензура: Есть

Озвучка: Японская (Оригинальная)

Режиссер: Watase Toshihiro
Автор оригинала: Taro Sinonome
Студия: BreakBottle

Описание RUS: Чио, после трудного дня решает понежиться в ванной. Но, сквозь клубы пара замечает, что в комнате она не одна. Ее младший брат, без тени смущения приводит свой молодой организм к чистому виду на глазах у сестрички. Слово за слово, и вот уже огромные буфера Чио служат нежнейшей мочалкой для воспрянувшего члена Юты. Страстная сцена оканчивается бурным извержением молодого человека, и он… просыпается. Да, это был всего лишь один из многочисленных снов Юты, в которых он предавался любовным утехам со своими сестрами, Чио или Наото. Но, между сном и явью всего лишь пара нужных фраз, произнесенных в нужное время, да легкая ревность к остальным девушкам у сестер главного героя… ©hentaimag.ru

Описание ENG: This story takes place in the days leading up to their school's School Festival. One day, Chinatsu overhears Yuuta being invited to a soccer match by his best friend, for the purpose of "curing his sis-com".
After they return home, as Yuuta is folding the laundry, he comes across a pair of racy panties! As he holds the panties in his hand, pondering its owner, Chinatsu creeps up on him from behind...
When he comes to, Yuuta finds Chinatsu sucking his dick. When he protests, Chinatsu tears up, explaining that she's jealous of how close he is to Chiyo. When Yuuta hears that, he's relieved of his preconception that Chinatsu dislikes him. However, at that moment, Chiyo also appears...

Информационные ссылки: AniDB - MAL - World Art - ХентайМаг
Доп. информация: В раздаче диск 2014 года, оригинальный хентай + спэшл

Качество видео: DVD5
Формат видео: DVD Video
Видео кодек: MPEG2
Аудио кодек: AC3
Видео: 720х480, (16:9), 29,970 кадров/сек, ~ 5000 Кбит/сек, NTSC
Аудио №1: JAP, AC-3, 2 канала, 192 Кбит/сек, 48,0 КГц
Аудио №2: JAP, AC-3, 2 канала, 192 Кбит/сек, 48,0 КГц
Общее
Полное имя : G:\VIDEO_TS\VTS_01_1.VOB
Формат : MPEG-PS
Размер файла : 1024 Мбайт
Продолжительность : 9 м. 35 с.
Режим общего битрейта : Переменный
Общий поток : 14,9 Мбит/сек

Видео
Идентификатор : 224 (0xE0)
Формат : MPEG Video
Версия формата : Version 2
Профиль формата : Main@Main
Параметр BVOP формата : Да
Параметр матрицы формата : Выборочная
Параметр GOP формата : Variable
Продолжительность : 9 м. 35 с.
Вид битрейта : Переменный
Битрейт : 14,2 Мбит/сек
Максимальный битрейт : 7000 Кбит/сек
Ширина : 720 пикселей
Высота : 480 пикселей
Соотношение сторон : 16:9
Частота кадров : 29,970 кадров/сек
Стандарт вещания : NTSC
Цветовое пространство : YUV
Субдискретизация насыщенности : 4:2:0
Битовая глубина : 8 бит
Тип развёртки : Чересстрочная
Порядок развёртки : Верхнее поле первое
Метод сжатия : С потерями
Бит/(Пиксели*Кадры) : 1.375
Временной код первого кадра : 00:00:00:00
Оригинал временного кода : Group of pictures header
Размер потока : 977 Мбайт (95%)
Основные цвета : BT.601 NTSC
Характеристики трансфера : BT.601
Коэффициенты матрицы : BT.601

Аудио #1
Идентификатор : 189 (0xBD)-128 (0x80)
Формат : AC-3
Формат/Информация : Audio Coding 3
Расширение режима : CM (complete main)
Параметр Endianness формата : Big
Режим смешивания : DVD-Video
Продолжительность : 9 м. 35 с.
Вид битрейта : Постоянный
Битрейт : 192 Кбит/сек
Каналы : 2 канала
Расположение каналов : Front: L R
Частота : 48,0 КГц
Битовая глубина : 16 бит
Метод сжатия : С потерями
Размер потока : 13,2 Мбайт (1%)

Аудио #2
Идентификатор : 189 (0xBD)-129 (0x81)
Формат : AC-3
Формат/Информация : Audio Coding 3
Расширение режима : CM (complete main)
Параметр Endianness формата : Big
Режим смешивания : DVD-Video
Продолжительность : 9 м. 35 с.
Вид битрейта : Постоянный
Битрейт : 192 Кбит/сек
Каналы : 2 канала
Расположение каналов : Front: L R
Частота : 48,0 КГц
Битовая глубина : 16 бит
Метод сжатия : С потерями
Размер потока : 13,2 Мбайт (1%)

Меню


Трекер:  [ 11-Мар-2014 11:05 ]

  

Скачать .torrent

Размер .torrent файла 11 KB


Размер: 2.12 GB
Хэш (hash) релиза: a429b048331a2d5b7047431e034cd5ffbee98f5a

Торренты, похожие на Swing Out Sisters скачать торрент

Форум Название Автор Размер S L Добавлен
Хентай | С цензурой ·· Swing Out Sisters / Сестры-сердцеедки (Watase Toshihiro) (ep. 1) [cen] [2011 г., Sister, Incest, Big tits, Oral, Anal, Titfuck, School, BDRip] [jap/eng] [720p] Galfimbul 433398542413 MB 0 0 1322796134

06:22

2-Дек-11

Хентай | С цензурой ·· Swing Out Sisters Blu-ray&DVD / Сестры-свингеры (Полная версия) (BREAKBOTTLE) (ep. 2) [cen] [2014 г., Incest, Big tits, Group, BJ, Titsjob, Anal sex, Maids, DVDRip] [jap, rus] [480p] Galfimbul 919061086876 MB 2 0 1391599603

14:26

5-Фев-14

Хентай | С цензурой ·· Swing Out Sisters / Сестра, подмени! / Сестры-свингеры (Watase Toshihiro, TENMA COMICS RiN) (ep. 1 of 1) [cen] [2011 г. Anal, Big tits, Blowjob, Incest, Maids, Peeing, Romance, School, Titsjob, BDRip] [jap / eng / hun / pol / rus] LinGr 242292796231 MB 0 0 1381009156

00:39

6-Окт-13

Хентай, порно и эротические мультфильмы ·· Swing Out Sisters / Сестра, подмени! / Сестры-сердцеедки (Watase Toshihiro / Ватасэ Тосихиро, TENMA COMICS RiN) (ep. 1 of 1) [cen] [2011 г., Anal, Big tits, Blowjob, Incest, Maids, Peeing, Romance, School, Titsjob, BDRip] [jap/eng/rus] [720p] Galfimbul 477323449455 MB 0 0 1340804880

16:48

27-Июн-12

Хентай | С цензурой ·· Swing Out Sisters / Сестры-сердцеедки (Watase Toshihiro / Ватасэ Тосихиро, TENMA COMICS RiN) (ep. 1) [cen] [2011 г., Anal, Big tits, Blowjob, Incest, Maids, Peeing, Romance, School, Titsjob, BDRip] [jap/eng] [480p] Galfimbul 271052870258 MB 1 1 1322796133

06:22

2-Дек-11

Еще никто не оставлял запись к записи скачать торрент Swing Out Sisters . Будь первым!

!Обратная связь