Скачать через торрент XI Зимние Паралимпийские Игры 2014. Горные лыжи. Женщины. Супер-гигант. Сидя, стоя, с нарушением зрения Спорт 1 Фильм бесплатно в хорошем качестве torrent

Скачивайте на UnionPeer.org фильмы через торрент без регистрации. Новинки кино в хорошем качестве через торрент. На UnionPeer.org можно скачать через торрент фильмы 2014 и 2015 годов. Самые новые фильмы.

Скачать торрент XI Зимние Паралимпийские Игры 2014. Горные лыжи. Женщины. Супер-гигант. Сидя, стоя, с нарушением зрения Спорт 1 бесплатно через .torrent фильм мультфильм сериал

Если у вас наблюдаются проблемы со скриншотами, переходом по ссылками, скачиванием торрентов - проблемы в блокировщике рекламы AdBlock. #хорошегоДня!


Статистика раздачи
Размер:  1.39 GB   |    Зарегистрирован:  3 года 9 месяцев   |    .torrent скачан:  46 раз   |   
Раздают:  1  
   
Загрузка...
 
Автор Сообщение

Galfimbul

avatar Galfimbul


XI Зимние Паралимпийские Игры 2014. Горные лыжи. Женщины. Супер-гигант

Вид спорта: Горные лыжи
Комментарий: Профессиональный
Язык комментариев: Русский (Алексей Осин)
Описание: XI Зимние Паралимпийские Игры 2014. Горные лыжи. Супер-гигант. Женщины сидя, Женщины стоя, Женщины с нарушением зрения.
Автор рипа: sanchez2011
Качество: SATRip
Формат: AVI
Видео кодек: XviD
Аудио кодек: MP3
Видео: MPEG-4 Visual (H263) 720x400 (16:9) 25.00fps 1700kbps
Аудио: MPEG Audio Layer 3 48000Hz stereo 128kbps
Продолжительность: 01:48:15
GeneralComplete name : E:\Паралимпиада 2014\XI Зимние Паралимпийские Игры 2014 10.03.2014 Горные лыжи. Женщины. Супер-гигант.aviFormat : AVIFormat/Info : Audio Video InterleaveFile size : 1.39 GiBDuration : 1h 48mnOverall bit rate : 1 832 KbpsWriting application : VirtualDubMod 1.5.10.2 (build 2540/release)Writing library : VirtualDubMod build 2540/release

VideoID : 0Format : MPEG-4 VisualFormat profile : Advanced Simple@L5Format settings, BVOP : 2Format settings, QPel : NoFormat settings, GMC : No warppointsFormat settings, Matrix : Default (H.263)Codec ID : XVIDCodec ID/Hint : XviDDuration : 1h 48mnBit rate : 1 695 KbpsWidth : 720 pixelsHeight : 400 pixelsDisplay aspect ratio : 16:9Frame rate : 25.000 fpsColor space : YUVChroma subsampling : 4:2:0Bit depth : 8 bitsScan type : ProgressiveCompression mode : LossyBits/(Pixel*Frame) : 0.235Stream size : 1.28 GiB (92%)Writing library : XviD 64

AudioID : 1Format : MPEG AudioFormat version : Version 1Format profile : Layer 3Mode : Joint stereoMode extension : MS StereoCodec ID : 55Codec ID/Hint : MP3Duration : 1h 48mnBit rate mode : ConstantBit rate : 128 KbpsChannel(s) : 2 channelsSampling rate : 48.0 KHzCompression mode : LossyStream size : 99.1 MiB (7%)Alignment : Aligned on interleavesInterleave, duration : 40 ms (1.00 video frame)Interleave, preload duration : 504 msWriting library : LAME3.100


Трекер:  [ 10-Мар-2014 12:00 ]

  

Скачать .torrent

Размер .torrent файла 14 KB


Размер: 1.39 GB
Хэш (hash) релиза: 7b4ba9c27261d174ebf68bd662cd9c23778d6654
Подписка на обновления:

Еще никто не оставлял запись к записи скачать торрент XI Зимние Паралимпийские Игры 2014. Горные лыжи. Женщины. Супер-гигант. Сидя, стоя, с нарушением зрения Спорт 1 . Будь первым!

!Обратная связь