Скачать через торрент XXII Зимние Олимпийские Игры 2014 Обзорные передачи - Олимпийское утро Фильм бесплатно в хорошем качестве torrent

Скачивайте на UnionPeer.org фильмы через торрент без регистрации. Новинки кино в хорошем качестве через торрент. На UnionPeer.org можно скачать через торрент фильмы 2014 и 2015 годов. Самые новые фильмы.

Скачать торрент XXII Зимние Олимпийские Игры 2014 Обзорные передачи - Олимпийское утро бесплатно через .torrent фильм мультфильм сериал

Если у вас наблюдаются проблемы со скриншотами, переходом по ссылками, скачиванием торрентов - проблемы в блокировщике рекламы AdBlock. #хорошегоДня!


Статистика раздачи
Размер:  48.05 GB   |    Зарегистрирован:  3 года 7 месяцев   |    .torrent скачан:  44 раза   |   
Раздают:  1  
   
Загрузка...
 
Автор Сообщение

Galfimbul

avatar Galfimbul


XXII Зимние Олимпийские Игры 2014 / Обзорные передачи - Олимпийское утро

Вид спорта: Обзор
Дата/Год выпуска: c 3 по 21 февраля 2014 года
Язык комментариев: русский
Описание: Олимпийское утро на 1 - это олимпийский формат традиционной программы "Доброе утро", но на эти дни оно по-олимпийски. За время с 3 по 21 февраля (программа только по будням шла) здесь можно увидеть своеобразные правила спортивных дисциплин, встречи со спортсменами и звёздами шоу-бизнеса, приехавших в Сочи, вы узнаете как подобрать олимпийский инвентарь по качеству, как приготовить олимпийский завтрак, а также увидеть олимпийский гороскоп на эти дни. В общем много олимпийских сюрпризов из олимпийской столицы XXII зимних олимпийских игр в Сочи 2014. Всё для болельщиков, спортсменов и волонтёров, всё для страны на вечную память каждому её жителю о величайших и легендарных зимних олимпийских игр в мировой истории.

Доп. информация: Нет записи за день 3 и 8. Если встретите глюки в записи - камни не кидайте, лучшего увы нет да и мало кому оказалось это надо (в 7 утра вставать и писать - вряд ли были желающие хотя бы на эти 3 недели ради такого события в своей жизни). Сама программа оказалась не столь затяжной с 5 до 9 утра в виду того, что за это время сюжетные репортажи повторяются раза 3, а с 5 до 7 вовсе отсутствует связь с олимпийской студией (с 5 до 7 то же самое только репортаж из Москвы, а не из студии в лице ведущих).

Качество: DVB
Формат видео: MPEG
Видео: MPEG2 Video, 720x576, 25.000 fps, ~7648 Kbps, 16:9
Аудио: MPEG Audio, 48000 Hz, stereo, 192-384 kbps
01:00:00 (+/- 10 мин)
Формат : MPEG-PS
Размер файла : 3,49 Гбайт
Продолжительность : 1 ч. 0 м.
Общий поток : 8292 Кбит/сек

Видео
Идентификатор : 224 (0xE0)
Формат : MPEG Video
Версия формата : Version 2
Профиль формата : Main@Main
Параметр BVOP формата : Да
Параметр матрицы формата : По умолчанию
Параметры GOP формата : M=1, N=25
Продолжительность : 1 ч. 0 м.
Вид битрейта : Переменный
Битрейт : 7743 Кбит/сек
Номинальный битрейт : 15,0 Мбит/сек
Ширина : 720 пикс.
Высота : 576 пикс.
Соотношение сторон : 16:9
Частота кадров : 25,000 кадр/сек
Стандарт вещания : PAL
Цветовое пространство : YUV
Подвыборка цветности : 4:2:0
Битовая глубина : 8 бит
Тип развёртки : Чересстрочная
Порядок развёртки : Верхнее поле первое
Метод сжатия : С потерями
Бит/(Пиксели*Кадры) : 0.747
Размер потока : 3,26 Гбайт (93%)

Аудио
Идентификатор : 192 (0xC0)
Формат : MPEG Audio
Версия формата : Version 1
Профиль формата : Layer 2
Продолжительность : 1 ч. 0 м.
Вид битрейта : Постоянный
Битрейт : 384 Кбит/сек
Канал(ы) : 2 канала(ов)
Частота : 48,0 КГц
Метод сжатия : С потерями
Размер потока : 165 Мбайт (5%)


Трекер:  [ 09-Мар-2014 12:00 ]

  

Скачать .torrent

Размер .torrent файла 242 KB


Размер: 48.05 GB
Хэш (hash) релиза: 9ceacb4326d0001bb107ea033f3dfe7fd8ce3cbe
Подписка на обновления:

Еще никто не оставлял запись к записи скачать торрент XXII Зимние Олимпийские Игры 2014 Обзорные передачи - Олимпийское утро . Будь первым!

!Обратная связь