Скачать через торрент XI Зимние Паралимпийские Игры 2014 Церемония открытия Фильм бесплатно в хорошем качестве torrent

Скачивайте на UnionPeer.org фильмы через торрент без регистрации. Новинки кино в хорошем качестве через торрент. На UnionPeer.org можно скачать через торрент фильмы 2014 и 2015 годов. Самые новые фильмы.

Скачать торрент XI Зимние Паралимпийские Игры 2014 Церемония открытия бесплатно через .torrent фильм мультфильм сериал

Если у вас наблюдаются проблемы со скриншотами, переходом по ссылками, скачиванием торрентов - проблемы в блокировщике рекламы AdBlock. #хорошегоДня!


Статистика раздачи
Размер:  2.83 GB   |    Зарегистрирован:  3 года 7 месяцев   |    .torrent скачан:  38 раз   |   
Раздают:  1  
   
Загрузка...
 
Автор Сообщение

Galfimbul

avatar Galfimbul


XI Зимние Паралимпийские Игры 2014. Церемония открытия. Спорт 1

Комментарий: Профессиональный
Язык комментариев: Русский (Ольга Богословская и Тарас Тимошенко)
Продолжительность: 02:04:11
Описание: Торжественная Церемония открытия XI зимних Паралимпийских игр 2014 в Сочи. Трансляция полная, реклам во время трансляции не было!
Автор рипа: sanchez2011
Качество: DVB
Формат: MPEG-PS
Видео кодек: MPEG2
Аудио кодек: MP2
Видео: MPEG2 Video 720x576 (16:9) 25.00fps 3000kbps
Аудио: MPEG Audio Layer 2 48000Hz stereo 192kbps
GeneralComplete name : E:\Паралимпиада 2014\Паралимпиада 2014. Открытие. Спорт 1.mpgFormat : MPEG-PSFile size : 2.83 GiBDuration : 2h 4mnOverall bit rate mode : VariableOverall bit rate : 3 260 Kbps

VideoID : 224 (0xE0)Format : MPEG VideoFormat version : Version 2Format profile : Main@MainFormat settings, BVOP : YesFormat settings, Matrix : CustomFormat settings, GOP : VariableDuration : 2h 4mnBit rate mode : VariableBit rate : 3 003 KbpsMaximum bit rate : 15.0 MbpsWidth : 720 pixelsHeight : 576 pixelsDisplay aspect ratio : 16:9Frame rate : 25.000 fpsStandard : PALColor space : YUVChroma subsampling : 4:2:0Bit depth : 8 bitsScan type : InterlacedScan order : Top Field FirstCompression mode : LossyBits/(Pixel*Frame) : 0.290Time code of first frame : 00:00:00:00Time code source : Group of pictures headerStream size : 2.60 GiB (92%)

AudioID : 192 (0xC0)Format : MPEG AudioFormat version : Version 1Format profile : Layer 2Duration : 2h 4mnBit rate mode : ConstantBit rate : 192 KbpsChannel(s) : 2 channelsSampling rate : 48.0 KHzCompression mode : LossyDelay relative to video : 94msStream size : 171 MiB (6%)


Трекер:  [ 09-Мар-2014 12:00 ]

  

Скачать .torrent

Размер .torrent файла 14 KB


Размер: 2.83 GB
Хэш (hash) релиза: 26cee5de565442483c4c1dd2e83355dad63ec64f
Подписка на обновления:

Торренты, похожие на XI Зимние Паралимпийские Игры 2014 Церемония открытия скачать торрент

Форум Название Автор Размер S L Добавлен
Зимние Олимпийские игры в Сочи 2014 ·· XI Зимние Паралимпийские Игры 2014 / Церемония открытия / Спорт 1 [07.03.2014, Паралимпиада, SATRip, XviD, 400p] Galfimbul 17995898881.68 GB 0 0 1394355782

12:03

9-Мар-14

Еще никто не оставлял запись к записи скачать торрент XI Зимние Паралимпийские Игры 2014 Церемония открытия . Будь первым!

!Обратная связь