Скачать через торрент XI Зимние Паралимпийские Игры 2014 Церемония открытия Фильм бесплатно в хорошем качестве torrent

Скачивайте на UnionPeer.org фильмы через торрент без регистрации. Новинки кино в хорошем качестве через торрент. На UnionPeer.org можно скачать через торрент фильмы 2014 и 2015 годов. Самые новые фильмы.

Скачать торрент XI Зимние Паралимпийские Игры 2014 Церемония открытия бесплатно через .torrent фильм мультфильм сериал

Если у вас наблюдаются проблемы со скриншотами, переходом по ссылками, скачиванием торрентов - проблемы в блокировщике рекламы AdBlock. #хорошегоДня!


Статистика раздачи
Размер:  2.5 GB   |    Зарегистрирован:  3 года 9 месяцев   |    .torrent скачан:  38 раз   |   
Раздают:  1  
   
Загрузка...
 
Автор Сообщение

Galfimbul

avatar Galfimbul


XI Зимние Паралимпийские Игры 2014. Церемония открытия. Первый Канал

Комментарий: Профессиональный
Язык комментариев: Русский (Виктор Гусев)
Продолжительность: 01:59:14
Описание: Торжественная Церемония открытия XI зимних Паралимпийских игр 2014 в Сочи. Реклама вырезана!
Автор рипа: sanchez2011
Качество: DVB
Формат: MPEG-TS
Видео кодек: AVC
Аудио кодек: MP2
Видео: MPEG4 Video (H264) 720x576 (16:9) 25.00fps 2700kbps
Аудио: MPEG Audio Layer 2 48000Hz stereo 192kbps
GeneralID : 1 (0x1)Complete name : E:\Паралимпиада 2014\Паралимпиада 2014. Открытие. Первый Канал.tsFormat : MPEG-TSFile size : 2.50 GiBDuration : 1h 59mnOverall bit rate mode : VariableOverall bit rate : 3 004 Kbps

VideoID : 1011 (0x3F3)Menu ID : 1 (0x1)Format : AVCFormat/Info : Advanced Video CodecFormat profile : Main@L3.0Format settings, CABAC : YesFormat settings, ReFrames : 3 framesFormat settings, GOP : M=4, N=28Codec ID : 27Duration : 1h 59mnBit rate : 2 662 KbpsWidth : 720 pixelsHeight : 576 pixelsDisplay aspect ratio : 16:9Frame rate : 25.000 fpsStandard : ComponentColor space : YUVChroma subsampling : 4:2:0Bit depth : 8 bitsScan type : InterlacedScan order : Top Field FirstBits/(Pixel*Frame) : 0.257Stream size : 2.22 GiB (89%)Color primaries : BT.601 PALTransfer characteristics : BT.470 System B, BT.470 System GMatrix coefficients : BT.601

AudioID : 1012 (0x3F4)Menu ID : 1 (0x1)Format : MPEG AudioFormat version : Version 1Format profile : Layer 2Codec ID : 3Duration : 1h 59mnBit rate mode : ConstantBit rate : 192 KbpsChannel(s) : 2 channelsSampling rate : 48.0 KHzCompression mode : LossyStream size : 164 MiB (6%)Language : English

TextID : 1014 (0x3F6)-100Menu ID : 1 (0x1)Format : TeletextLanguage : Russian

MenuID : 256 (0x100)Menu ID : 1 (0x1)Duration : 1h 59mnList : 1011 (0x3F3) (AVC) / 1012 (0x3F4) (MPEG Audio, English) / 1014 (0x3F6) ()Language : / English


Трекер:  [ 09-Мар-2014 12:00 ]

  

Скачать .torrent

Размер .torrent файла 13 KB


Размер: 2.5 GB
Хэш (hash) релиза: 289166e97b76ec98bdf8c0fc4dec0031665174f5
Подписка на обновления:

Еще никто не оставлял запись к записи скачать торрент XI Зимние Паралимпийские Игры 2014 Церемония открытия . Будь первым!

!Обратная связь