Скачать через торрент XI Зимние Паралимпийские Игры 2014 Церемония открытия Фильм бесплатно в хорошем качестве torrent

Скачивайте на UnionPeer.org фильмы через торрент без регистрации. Новинки кино в хорошем качестве через торрент. На UnionPeer.org можно скачать через торрент фильмы 2014 и 2015 годов. Самые новые фильмы.

Скачать торрент XI Зимние Паралимпийские Игры 2014 Церемония открытия бесплатно через .torrent фильм мультфильм сериал

Если у вас наблюдаются проблемы со скриншотами, переходом по ссылками, скачиванием торрентов - проблемы в блокировщике рекламы AdBlock. #хорошегоДня!


Статистика раздачи
Размер:  1.61 GB   |    Зарегистрирован:  3 года 7 месяцев   |    .torrent скачан:  42 раза   |   
Раздают:  1  
   
Загрузка...
 
Автор Сообщение

Galfimbul

avatar Galfimbul


XI Зимние Паралимпийские Игры 2014. Церемония открытия. Первый Канал

Комментарий: Профессиональный
Язык комментариев: Русский (Виктор Гусев)
Продолжительность: 01:59:14
Описание: Торжественная Церемония открытия XI зимних Паралимпийских игр 2014 в Сочи. Реклама вырезана!
Автор рипа: sanchez2011
Качество: SATRip
Формат: AVI
Видео кодек: XviD
Аудио кодек: MP3
Видео: MPEG4 Visual (H263) 720x400 (16:9) 25.00fps 1800kbps
Аудио: MPEG Audio Layer 3 48000Hz stereo 128kbps
GeneralComplete name : E:\Паралимпиада 2014\Паралимпиада 2014. Открытие. Первый Канал.aviFormat : AVIFormat/Info : Audio Video InterleaveFile size : 1.61 GiBDuration : 1h 59mnOverall bit rate : 1 933 KbpsWriting application : VirtualDubMod 1.5.10.2 (build 2540/release)Writing library : VirtualDubMod build 2540/release

VideoID : 0Format : MPEG-4 VisualFormat profile : Advanced Simple@L5Format settings, BVOP : 2Format settings, QPel : NoFormat settings, GMC : No warppointsFormat settings, Matrix : Default (H.263)Codec ID : XVIDCodec ID/Hint : XviDDuration : 1h 59mnBit rate : 1 795 KbpsWidth : 720 pixelsHeight : 400 pixelsDisplay aspect ratio : 16:9Frame rate : 25.000 fpsColor space : YUVChroma subsampling : 4:2:0Bit depth : 8 bitsScan type : ProgressiveCompression mode : LossyBits/(Pixel*Frame) : 0.249Stream size : 1.49 GiB (93%)Writing library : XviD 64

AudioID : 1Format : MPEG AudioFormat version : Version 1Format profile : Layer 3Mode : Joint stereoMode extension : MS StereoCodec ID : 55Codec ID/Hint : MP3Duration : 1h 59mnBit rate mode : ConstantBit rate : 128 KbpsChannel(s) : 2 channelsSampling rate : 48.0 KHzCompression mode : LossyStream size : 109 MiB (7%)Alignment : Aligned on interleavesInterleave, duration : 40 ms (1.00 video frame)Interleave, preload duration : 504 msWriting library : LAME3.100


Трекер:  [ 09-Мар-2014 12:00 ]

  

Скачать .torrent

Размер .torrent файла 16 KB


Размер: 1.61 GB
Хэш (hash) релиза: 330450893b2f106b5cc382110d32d5ed7216af81
Подписка на обновления:

Еще никто не оставлял запись к записи скачать торрент XI Зимние Паралимпийские Игры 2014 Церемония открытия . Будь первым!

!Обратная связь