Скачать через торрент XI Зимние Паралимпийские Игры 2014 Церемония открытия Фильм бесплатно в хорошем качестве torrent

Скачивайте на UnionPeer.org фильмы через торрент без регистрации. Новинки кино в хорошем качестве через торрент. На UnionPeer.org можно скачать через торрент фильмы 2014 и 2015 годов. Самые новые фильмы.

Скачать торрент XI Зимние Паралимпийские Игры 2014 Церемония открытия бесплатно через .torrent фильм мультфильм сериал

Если у вас наблюдаются проблемы со скриншотами, переходом по ссылками, скачиванием торрентов - проблемы в блокировщике рекламы AdBlock. #хорошегоДня!


Статистика раздачи
Размер:  2.59 GB   |    Зарегистрирован:  3 года 7 месяцев   |    .torrent скачан:  41 раз   |   
Раздают:  1  
   
Загрузка...
 
Автор Сообщение

Galfimbul

avatar Galfimbul


XI Зимние Паралимпийские Игры 2014. Церемония открытия. Первый Канал HD

Комментарий: Профессиональный
Язык комментариев: Русский (Виктор Гусев)
Продолжительность: 01:59:14
Описание: Торжественная Церемония открытия XI зимних Паралимпийских игр 2014 в Сочи. Реклама вырезана!
Автор рипа: sanchez2011
Качество: HDTVRip
Формат: MKV
Видео кодек: AVC
Аудио кодек: MP3
Видео: MPEG4 Video (H264) 1280x720 (16:9) 25.00fps 3000kbps
Аудио: MPEG Audio Layer 3 48000Hz stereo 128kbps
GeneralUnique ID : 218418687149967567591661432547831160216 (0xA451E8B4326A497BB10CD6094B979D98)Complete name : E:\Паралимпиада 2014\Паралимпиада 2014. Открытие. Первый Канал HD.mkvFormat : MatroskaFormat version : Version 2File size : 2.59 GiBDuration : 1h 59mnOverall bit rate : 3 107 KbpsWriting application : XviD4PSP 6.0 / 53.6.0Writing library : XviD4PSP 6.0 / 53.6.0

VideoID : 1Format : AVCFormat/Info : Advanced Video CodecFormat profile : High@L4.1Format settings, CABAC : YesFormat settings, ReFrames : 3 framesCodec ID : V_MPEG4/ISO/AVCDuration : 1h 59mnBit rate : 3 000 KbpsWidth : 1 280 pixelsHeight : 720 pixelsDisplay aspect ratio : 16:9Frame rate mode : ConstantFrame rate : 25.000 fpsColor space : YUVChroma subsampling : 4:2:0Bit depth : 8 bitsScan type : ProgressiveBits/(Pixel*Frame) : 0.130Stream size : 2.43 GiB (94%)Writing library : x264 core 116 r2019M 9cc407dEncoding settings : cabac=1 / ref=3 / deblock=1:0:0 / analyse=0x3:0x133 / me=hex / subme=7 / psy=1 / psy_rd=1.00:0.20 / mixed_ref=1 / me_range=16 / chroma_me=1 / trellis=1 / 8x8dct=1 / cqm=0 / deadzone=21,11 / fast_pskip=1 / chroma_qp_offset=-3 / threads=8 / sliced_threads=0 / nr=0 / decimate=1 / interlaced=0 / bluray_compat=0 / constrained_intra=0 / bframes=3 / b_pyramid=1 / b_adapt=2 / b_bias=0 / direct=3 / weightb=1 / open_gop=0 / weightp=2 / keyint=250 / keyint_min=25 / scenecut=40 / intra_refresh=0 / rc_lookahead=40 / rc=abr / mbtree=1 / bitrate=3000 / ratetol=1.0 / qcomp=0.60 / qpmin=10 / qpmax=51 / qpstep=4 / ip_ratio=1.40 / aq=1:1.00Default : YesForced : No

AudioID : 2Format : MPEG AudioFormat version : Version 1Format profile : Layer 3Mode : Joint stereoMode extension : MS StereoCodec ID : A_MPEG/L3Codec ID/Hint : MP3Duration : 1h 59mnBit rate mode : ConstantBit rate : 128 KbpsChannel(s) : 2 channelsSampling rate : 48.0 KHzCompression mode : LossyStream size : 109 MiB (4%)Language : RussianDefault : YesForced : No


Трекер:  [ 09-Мар-2014 12:00 ]

  

Скачать .torrent

Размер .torrent файла 13 KB


Размер: 2.59 GB
Хэш (hash) релиза: 89d1faf88d16174748f2ac0a293085b23e89caef
Подписка на обновления:

Торренты, похожие на XI Зимние Паралимпийские Игры 2014 Церемония открытия скачать торрент

Форум Название Автор Размер S L Добавлен
Зимние Олимпийские игры в Сочи 2014 ·· XI Зимние Паралимпийские Игры 2014 / Церемония открытия / Первый Канал HD [07.03.2014, Паралимпиада, HDTV, 1080i] Galfimbul 1439182638413.4 GB 0 0 1394355793

12:03

9-Мар-14

Спорт ·· XI Зимние Паралимпийские Игры 2014 (Сочи, Россия). Церемония открытия / Первый Канал HD [07.03.2014, Зимние виды спорта, HDTVRip/720p/50fps, MKV/H.264, RU] Galfimbul 40676601543.79 GB 0 0 1503984041

08:20

29-Авг-17

Еще никто не оставлял запись к записи скачать торрент XI Зимние Паралимпийские Игры 2014 Церемония открытия . Будь первым!

!Обратная связь