Скачать через торрент XXII Зимние Олимпийские Игры 2014 Горные лыжи Фильм бесплатно в хорошем качестве torrent

Скачивайте на UnionPeer.org фильмы через торрент без регистрации. Новинки кино в хорошем качестве через торрент. На UnionPeer.org можно скачать через торрент фильмы 2014 и 2015 годов. Самые новые фильмы.

Скачать торрент XXII Зимние Олимпийские Игры 2014 Горные лыжи бесплатно через .torrent фильм мультфильм сериал

Если у вас наблюдаются проблемы со скриншотами, переходом по ссылками, скачиванием торрентов - проблемы в блокировщике рекламы AdBlock. #хорошегоДня!


Статистика раздачи
Размер:  5.46 GB   |    Зарегистрирован:  3 года 7 месяцев   |    .torrent скачан:  48 раз   |   
Раздают:  1  
   
Загрузка...
 
Автор Сообщение

Galfimbul

avatar Galfimbul


XXII Зимние Олимпийские Игры 2014 / Горные лыжи / Мужчины / Слалом / 1-я попытка / ORF 1 HD

Вид спорта: Горные лыжи
Дата/Год выпуска: 22.02.14
Язык комментариев: немецкий

Автор записи: SashaR.

Качество: DVB-S2 Remux
Формат видео: TS
Видео: AVC, 1280x720, 16:9, 9 104 Kbps, 50 fps
Аудио: MP2, 160 kbps, 48 kHz, 2 channels
Аудио: MP2, 160 kbps, 48 kHz, 2 channels
Аудио: AC-3, 448 kbps, 48 kHz, 6 channels
F:\Олимпиада\Горные лыжи. Мужчины. Слалом. 1-я попытка (ORF 1 HD).ts
General #6
ID : 6 (0x6)
Complete name : F:\Олимпиада\Горные лыжи. Мужчины. Слалом. 1-я попытка (ORF 1 HD).ts
Format : MPEG-TS
File size : 5.46 GiB
Duration : 1h 15mn
Overall bit rate mode : Variable
Overall bit rate : 10.4 Mbps
Video #1920
ID : 1920 (0x780)
Menu ID : 4911 (0x132F)
Format : AVC
Format/Info : Advanced Video Codec
Format profile : High@L4.0
Format settings, CABAC : Yes
Format settings, ReFrames : 4 frames
Codec ID : 27
Duration : 1h 15mn
Bit rate : 9 104 Kbps
Width : 1 280 pixels
Height : 720 pixels
Display aspect ratio : 16:9
Frame rate : 50.000 fps
Color space : YUV
Chroma subsampling : 4:2:0
Bit depth : 8 bits
Scan type : Progressive
Bits/(Pixel*Frame) : 0.198
Stream size : 4.78 GiB (88%)
Audio #1921
ID : 1921 (0x781)
Menu ID : 4911 (0x132F)
Format : MPEG Audio
Format version : Version 1
Format profile : Layer 2
Mode : Joint stereo
Codec ID : 4
Duration : 1h 15mn
Bit rate mode : Constant
Bit rate : 160 Kbps
Channel count : 2 channels
Sampling rate : 48.0 KHz
Compression mode : Lossy
Delay relative to video : 176ms
Stream size : 86.1 MiB (2%)
Language : German
Language, more info : Clean effects
Audio #1922
ID : 1922 (0x782)
Menu ID : 4911 (0x132F)
Format : MPEG Audio
Format version : Version 1
Format profile : Layer 2
Mode : Joint stereo
Mode extension : Intensity Stereo
Codec ID : 4
Duration : 1h 15mn
Bit rate mode : Constant
Bit rate : 160 Kbps
Channel count : 2 channels
Sampling rate : 48.0 KHz
Compression mode : Lossy
Delay relative to video : 176ms
Stream size : 86.1 MiB (2%)
Language : English
Language, more info : Clean effects
Audio #1923
ID : 1923 (0x783)
Menu ID : 4911 (0x132F)
Format : AC-3
Format/Info : Audio Coding 3
Mode extension : CM (complete main)
Format settings, Endianness : Big
Codec ID : 6
Duration : 1h 15mn
Bit rate mode : Constant
Bit rate : 448 Kbps
Channel count : 6 channels
Channel positions : Front: L C R, Side: L R, LFE
Sampling rate : 48.0 KHz
Bit depth : 16 bits
Compression mode : Lossy
Delay relative to video : 168ms
Stream size : 241 MiB (4%)
Language : German
Language, more info : Clean effects
01:49:07


Трекер:  [ 09-Мар-2014 12:00 ]

  

Скачать .torrent

Размер .torrent файла 110 KB


Размер: 5.46 GB
Хэш (hash) релиза: 062fd32b1b7ca218cc7aa582c133e87ff9b56c8b
Подписка на обновления:

Торренты, похожие на XXII Зимние Олимпийские Игры 2014 Горные лыжи скачать торрент

Форум Название Автор Размер S L Добавлен
Зимние Олимпийские игры в Сочи 2014 ·· XXII Зимние Олимпийские Игры 2014 / Горные лыжи / Мужчины / Слалом / 2-я попытка / ORF 1 HD [22.02.14, Горные лыжи, DVB-S2 Remux, 720p 50 FPS, DE] Galfimbul 58764246645.47 GB 0 0 1394355719

12:01

9-Мар-14

Еще никто не оставлял запись к записи скачать торрент XXII Зимние Олимпийские Игры 2014 Горные лыжи . Будь первым!

!Обратная связь