Скачать через торрент XI Зимние Паралимпийские Игры 2014. Биатлон стоя. Спринт. Мужчины 7,5 км. Женщины 6 км Россия 2 Фильм бесплатно в хорошем качестве torrent

Скачивайте на UnionPeer.org фильмы через торрент без регистрации. Новинки кино в хорошем качестве через торрент. На UnionPeer.org можно скачать через торрент фильмы 2014 и 2015 годов. Самые новые фильмы.

Скачать торрент XI Зимние Паралимпийские Игры 2014. Биатлон стоя. Спринт. Мужчины 7,5 км. Женщины 6 км Россия 2 бесплатно через .torrent фильм мультфильм сериал

Если у вас наблюдаются проблемы со скриншотами, переходом по ссылками, скачиванием торрентов - проблемы в блокировщике рекламы AdBlock. #хорошегоДня!


Статистика раздачи
Размер:  1.03 GB   |    Зарегистрирован:  3 года 7 месяцев   |    .torrent скачан:  40 раз   |   
Раздают:  1  
   
Загрузка...
 
Автор Сообщение

Galfimbul

avatar Galfimbul


XI Зимние Паралимпийские Игры 2014. Биатлон стоя. Мужчины, женщины. Спринт

Вид спорта: Биатлон
Комментарий: Профессиональный
Язык комментариев: Русский (Руслан Гатаулин)
Описание: XI Зимние Паралимпийские Игры 2014. Биатлон стоя. Спринт. Мужчины 7,5 км. Женщины 6 км.
Автор рипа: sanchez2011
Качество: DVB
Формат: MPEG-TS
Видео кодек: AVC
Аудио кодек: MP2
Видео: MPEG4 Video 720x576 (16:9) 25.00fps 2600kbps
Аудио: MPEG Audio Layer 2 48000Hz stereo 192kbps
Продолжительность: 00:50:36
GeneralID : 1 (0x1)Complete name : E:\Паралимпиада 2014\XI Зимние Паралимпийские Игры 2014 09.03.2014 Биатлон стоя. Мужчины, Женщины. Спринт.tsFormat : MPEG-TSFile size : 1.03 GiBDuration : 50mn 36sOverall bit rate mode : VariableOverall bit rate : 2 924 Kbps

VideoID : 1031 (0x407)Menu ID : 1 (0x1)Format : AVCFormat/Info : Advanced Video CodecFormat profile : Main@L3.0Format settings, CABAC : YesFormat settings, ReFrames : 3 framesCodec ID : 27Duration : 50mn 36sBit rate : 2 585 KbpsWidth : 720 pixelsHeight : 576 pixelsDisplay aspect ratio : 4:3Frame rate : 25.000 fpsStandard : ComponentColor space : YUVChroma subsampling : 4:2:0Bit depth : 8 bitsScan type : InterlacedScan order : Top Field FirstBits/(Pixel*Frame) : 0.249Stream size : 936 MiB (88%)Color primaries : BT.601 PALTransfer characteristics : BT.470 System B, BT.470 System GMatrix coefficients : BT.601

AudioID : 1032 (0x408)Menu ID : 1 (0x1)Format : MPEG AudioFormat version : Version 1Format profile : Layer 2Codec ID : 3Duration : 50mn 36sBit rate mode : ConstantBit rate : 192 KbpsChannel(s) : 2 channelsSampling rate : 48.0 KHzCompression mode : LossyStream size : 69.5 MiB (7%)Language : English


Трекер:  [ 09-Мар-2014 12:00 ]

  

Скачать .torrent

Размер .torrent файла 11 KB


Размер: 1.03 GB
Хэш (hash) релиза: 7c2a36db29204f2147a19f36414eb1e128b46e98
Подписка на обновления:

Торренты, похожие на XI Зимние Паралимпийские Игры 2014. Биатлон стоя. Спринт. Мужчины 7,5 км. Женщины 6 км Россия 2 скачать торрент

Форум Название Автор Размер S L Добавлен
Зимние Олимпийские игры в Сочи 2014 ·· XI Зимние Паралимпийские Игры 2014. Биатлон стоя. Спринт. Мужчины 7,5 км. Женщины 6 км. Спортсмены с нарушением зрения / Россия 2 [08.03.2014, Биатлон, DVB, AVC, 576i] Galfimbul 13793189641.28 GB 0 0 1394355672

12:01

9-Мар-14

Еще никто не оставлял запись к записи скачать торрент XI Зимние Паралимпийские Игры 2014. Биатлон стоя. Спринт. Мужчины 7,5 км. Женщины 6 км Россия 2 . Будь первым!

!Обратная связь