Скачать через торрент XI Зимние Паралимпийские Игры 2014. Биатлон стоя. Спринт. Мужчины 7,5 км. Женщины 6 км. Спортсмены с нарушением зрения Россия 2 Фильм бесплатно в хорошем качестве torrent

Скачивайте на UnionPeer.org фильмы через торрент без регистрации. Новинки кино в хорошем качестве через торрент. На UnionPeer.org можно скачать через торрент фильмы 2014 и 2015 годов. Самые новые фильмы.

Скачать торрент XI Зимние Паралимпийские Игры 2014. Биатлон стоя. Спринт. Мужчины 7,5 км. Женщины 6 км. Спортсмены с нарушением зрения Россия 2 бесплатно через .torrent фильм мультфильм сериал

Если у вас наблюдаются проблемы со скриншотами, переходом по ссылками, скачиванием торрентов - проблемы в блокировщике рекламы AdBlock. #хорошегоДня!


Статистика раздачи
Размер:  1.28 GB   |    Зарегистрирован:  3 года 7 месяцев   |    .torrent скачан:  43 раза   |   
Раздают:  1  
   
Загрузка...
 
Автор Сообщение

Galfimbul

avatar Galfimbul


XI Зимние Паралимпийские Игры 2014. Биатлон стоя. Мужчины, женщины. Спринт. Спортсмены с нарушением зрения

Вид спорта: Биатлон
Комментарий: Профессиональный
Язык комментариев: Русский (Руслан Гатаулин)
Описание: XI Зимние Паралимпийские Игры 2014. Биатлон стоя. Спринт. Мужчины 7,5 км. Женщины 6 км. Спортсмены с нарушением зрения
Автор рипа: sanchez2011
Качество: DVB
Формат: MPEG-TS
Видео кодек: AVC
Аудио кодек: MP2
Видео: MPEG4 Video 720x576 (16:9) 25.00fps 2600kbps
Аудио: MPEG Audio Layer 2 48000Hz stereo 192kbps
Продолжительность: 01:02:55
GeneralID : 1 (0x1)Complete name : E:\Паралимпиада 2014\XI Зимние Паралимпийские Игры 2014 09.03.2014 Биатлон стоя. Мужчины, Женщины. Спринт. Спортсмены с нарушением зрения.tsFormat : MPEG-TSFile size : 1.28 GiBDuration : 1h 2mnOverall bit rate mode : VariableOverall bit rate : 2 923 Kbps

VideoID : 1031 (0x407)Menu ID : 1 (0x1)Format : AVCFormat/Info : Advanced Video CodecFormat profile : Main@L3.0Format settings, CABAC : YesFormat settings, ReFrames : 3 framesFormat settings, GOP : M=4, N=28Codec ID : 27Duration : 1h 2mnBit rate : 2 584 KbpsWidth : 720 pixelsHeight : 576 pixelsDisplay aspect ratio : 4:3Frame rate : 25.000 fpsStandard : ComponentColor space : YUVChroma subsampling : 4:2:0Bit depth : 8 bitsScan type : InterlacedScan order : Top Field FirstBits/(Pixel*Frame) : 0.249Stream size : 1.14 GiB (88%)Color primaries : BT.601 PALTransfer characteristics : BT.470 System B, BT.470 System GMatrix coefficients : BT.601

AudioID : 1032 (0x408)Menu ID : 1 (0x1)Format : MPEG AudioFormat version : Version 1Format profile : Layer 2Codec ID : 3Duration : 1h 2mnBit rate mode : ConstantBit rate : 192 KbpsChannel(s) : 2 channelsSampling rate : 48.0 KHzCompression mode : LossyStream size : 86.4 MiB (7%)Language : English


Трекер:  [ 09-Мар-2014 12:00 ]

  

Скачать .torrent

Размер .torrent файла 13 KB


Размер: 1.28 GB
Хэш (hash) релиза: 275682ffccc4eaf10d4127d972461dd16c23aedc
Подписка на обновления:

Еще никто не оставлял запись к записи скачать торрент XI Зимние Паралимпийские Игры 2014. Биатлон стоя. Спринт. Мужчины 7,5 км. Женщины 6 км. Спортсмены с нарушением зрения Россия 2 . Будь первым!

!Обратная связь