Скачать через торрент XI Зимние Паралимпийские Игры 2014. Следж-хоккей. Предварительный раунд. Группа B. Россия - Корея Россия 2 Фильм бесплатно в хорошем качестве torrent

Скачивайте на UnionPeer.org фильмы через торрент без регистрации. Новинки кино в хорошем качестве через торрент. На UnionPeer.org можно скачать через торрент фильмы 2014 и 2015 годов. Самые новые фильмы.

Скачать торрент XI Зимние Паралимпийские Игры 2014. Следж-хоккей. Предварительный раунд. Группа B. Россия - Корея Россия 2 бесплатно через .torrent фильм мультфильм сериал

Если у вас наблюдаются проблемы со скриншотами, переходом по ссылками, скачиванием торрентов - проблемы в блокировщике рекламы AdBlock. #хорошегоДня!


Статистика раздачи
Размер:  1.73 GB   |    Зарегистрирован:  3 года 7 месяцев   |    .torrent скачан:  45 раз   |   
Раздают:  1  
   
Загрузка...
 
Автор Сообщение

Galfimbul

avatar Galfimbul


XI Зимние Паралимпийские Игры 2014. Следж-хоккей. Предварительный раунд. Группа B. Россия - Корея

Вид спорта: Биатлон
Комментарий: Профессиональный
Язык комментариев: Русский (Григорий Твалтвадзе)
Описание: XI Зимние Паралимпийские Игры 2014. Следж-хоккей. Предварительный раунд. Группа B. Россия - Корея.
Автор рипа: sanchez2011
Качество: DVB
Формат: MPEG-PS
Видео кодек: MPEG2
Аудио кодек: MP2
Видео: MPEG2 Video 720x576 (16:9) 25.00fps 2000kbps
Аудио: MPEG Audio Layer 2 48000Hz stereo 192kbps
Продолжительность: 01:49:50
GeneralComplete name : E:\Паралимпиада 2014\XI Зимние Паралимпийские Игры 2014 09.03.2014 Следж-хоккей. Предварительный раунд. Группа B. Россия - Корея.mpgFormat : MPEG-PSFile size : 1.73 GiBDuration : 1h 49mnOverall bit rate mode : VariableOverall bit rate : 2 261 Kbps

VideoID : 224 (0xE0)Format : MPEG VideoFormat version : Version 2Format profile : Main@MainFormat settings, BVOP : YesFormat settings, Matrix : CustomFormat settings, GOP : VariableDuration : 1h 49mnBit rate mode : VariableBit rate : 2 024 KbpsMaximum bit rate : 15.0 MbpsWidth : 720 pixelsHeight : 576 pixelsDisplay aspect ratio : 4:3Frame rate : 25.000 fpsStandard : PALColor space : YUVChroma subsampling : 4:2:0Bit depth : 8 bitsScan type : InterlacedScan order : Top Field FirstCompression mode : LossyBits/(Pixel*Frame) : 0.195Time code of first frame : 00:00:00:00Time code source : Group of pictures headerStream size : 1.55 GiB (90%)

AudioID : 192 (0xC0)Format : MPEG AudioFormat version : Version 1Format profile : Layer 2Duration : 1h 49mnBit rate mode : ConstantBit rate : 192 KbpsChannel(s) : 2 channelsSampling rate : 48.0 KHzCompression mode : LossyDelay relative to video : 14msStream size : 151 MiB (8%)


Трекер:  [ 09-Мар-2014 12:00 ]

  

Скачать .torrent

Размер .torrent файла 18 KB


Размер: 1.73 GB
Хэш (hash) релиза: 188099c154d9995f846fd5066e9c4bcb7233b950
Подписка на обновления:

Еще никто не оставлял запись к записи скачать торрент XI Зимние Паралимпийские Игры 2014. Следж-хоккей. Предварительный раунд. Группа B. Россия - Корея Россия 2 . Будь первым!

!Обратная связь