Скачать через торрент Нуар Noir бесплатно Аниме Все серии на русском torrent

Если у вас наблюдаются проблемы со скриншотами, переходом по ссылками, скачиванием торрентов - проблемы в блокировщике рекламы AdBlock. #хорошегоДня!


Статистика раздачи
Размер:  26.26 GB   |    Зарегистрирован:  3 года 6 месяцев   |    .torrent скачан:  51 раз   |   
Раздают:  1  
   
Загрузка...
 
Автор Сообщение

Polarnik

avatar Polarnik



Год выпуска: 2001
Страна: Япония
Жанр: драма
Продолжительность: ТВ-сериал, 26 эп. по 25 мин.
Выпуск: c 06.04.2001 по 28.09.2001
Перевод:

русские субтитры от letande
Озвучка:

многоголосая от Mega-Anime
Режиссер: Масимо Койти
Композитор: Кадзиура Юки
Студия: Bee Train
Описание:
Красавица Мирэй Буке - профессиональный киллер, одинокий волк, и удача всегда улыбается ей на этой опасной стезе. Но когда Мирэй откликается на e-mail от юной японки Юмуры Кирики, приглашающий совершить паломничество в прошлое, её жизнь становится ещё более опасной. Под звуки нежной мелодии, вызывающей в памяти трагедию далёкого прошлого, Мирэй и Кирика решают работать вместе, чтобы узнать правду о тысячелетней организации, контролировавшей их жизни с самого рождения. Единственная зацепка в этом поиске, единственное слово, которое Кирика помнит о себе, становится их названием - Нуар, с древних времён означающее имя Судьбы в образе двух дев, правящих смертью.
© Алексей Фадеев, World Art
Информационные ссылки: AniDB || World Art || MAL
Качество: BDRip
Энкод: Winter - RG Pantheon
Тип видео: без хардсаба, без линковки
Формат: mkv
Видео: x264 (Hi10p), 1280x720, ~6000 Kbps, 23.976 fps
Аудио JAP: Vorbis, 48000Hz, ~256 Kbps, 2ch
Аудио RUS: AC3, 48000Hz, ~192 Kbps, 2ch (внешними файлами)
01. Maidens with Black Hands
02. Daily Bread
03. The Assassination Play
04. The Sound of Waves
05. Les Soldats
06. Lost Kitten
07. The Black Thread of Fate
08. Intoccabile (Acte I)
09. Intoccabile (Acte II)
10. The True Noir
11. Moonlit Tea Party
12. Assassination Mission
13. Season of Hell
14. A Bouquet of Flowers for Mireille
15. The Cold-Blooded Killer (Acte I)
16. The Cold-Blooded Killer (Acte II)
17. Return to Corsica
18. The Darkness Within Me
19. Two Hands of the Soldats
20. Sin Amongst Sin
21. Morning of the Wicked Heart
22. The End of the Road
23. Affection in Story of the Remainder
24. Recurrence to Darkness
25. Depth of Hellfire
26. Birth
Общее
Уникальный идентификатор : 200848564828612438386315624683619536549 (0x971A06CA9BD0206FA632C92FCC04CEA5)
Полное имя : Z:\Anime\720p\Noir [BD] [720p]\[Winter] Noir 01 [BDrip 1280x720 x264 Vorbis].mkv
Формат : Matroska
Версия формата : Version 2
Размер файла : 1,03 Гбайт
Продолжительность : 24 м.
Режим общего битрейта : Переменный
Общий поток : 6056 Кбит/сек
Дата кодирования : UTC 2014-02-25 17:43:34
Программа кодирования : mkvmerge v2.9.8 ('C'est le bon') built on Aug 13 2009 12:49:06
Библиотека кодирования : libebml v0.7.7 + libmatroska v0.8.1

Видео
Идентификатор : 1
Формат : AVC
Формат/Информация : Advanced Video Codec
Профиль формата : High 10@L4.1
Параметр CABAC формата : Да
Параметр ReFrames формата : 9 кадров
Идентификатор кодека : V_MPEG4/ISO/AVC
Продолжительность : 24 м.
Битрейт : 5679 Кбит/сек
Ширина : 1280 пикселей
Высота : 720 пикселей
Соотношение сторон : 16:9
Режим частоты кадров : Постоянный
Частота кадров : 23,976 кадра/сек
Цветовое пространство : YUV
Субдискретизация насыщенности : 4:2:0
Битовая глубина : 10 бит
Тип развёртки : Прогрессивная
Бит/(Пиксели*Кадры) : 0.257
Размер потока : 994 Мбайт (94%)
Библиотека кодирования : x264 core 132 r2309 3b1f1f7
Настройки программы : cabac=1 / ref=9 / deblock=1:-2:-2 / analyse=0x3:0x133 / me=umh / subme=9 / psy=1 / psy_rd=0.90:0.00 / mixed_ref=1 / me_range=24 / chroma_me=1 / trellis=2 / 8x8dct=1 / cqm=0 / deadzone=21,11 / fast_pskip=1 / chroma_qp_offset=-2 / threads=12 / lookahead_threads=2 / sliced_threads=0 / nr=0 / decimate=0 / interlaced=0 / bluray_compat=0 / constrained_intra=0 / bframes=8 / b_pyramid=2 / b_adapt=2 / b_bias=0 / direct=1 / weightb=1 / open_gop=0 / weightp=2 / keyint=250 / keyint_min=23 / scenecut=40 / intra_refresh=0 / rc=crf / mbtree=0 / crf=17.7 / qcomp=0.70 / qpmin=9 / qpmax=40 / qpstep=4 / ip_ratio=1.40 / pb_ratio=1.30 / aq=1:0.90
Default : Нет
Forced : Нет

Аудио
Идентификатор : 2
Формат : Vorbis
Параметр Floor формата : 1
Идентификатор кодека : A_VORBIS
Продолжительность : 24 м.
Вид битрейта : Переменный
Битрейт : 256 Кбит/сек
Каналы : 2 канала
Частота : 48,0 КГц
Метод сжатия : С потерями
Размер потока : 44,8 Мбайт (4%)
Библиотека кодирования : libVorbis (Schaufenugget) (20101101 (Schaufenugget))
Язык : Japanese
Default : Да
Forced : Нет


Данный релиз предназначен для просмотра на ПК. Воспроизведение на иных проигрывателях не гарантируется. Для просмотра рекомендуется Media Player Classic с установленным пакетом кодеков K-Lite.

Данный релиз содержит 10-битное видео (Hi10p). Для корректного воспроизведения обязательно используйте кодеки, поддерживающие 10-битное видео.

Данный релиз предназначен для просмотра с внешними субтитрами и внешними звуковыми дорожками.

Для просмотра с внешней звуковой дорожкой нужно:
перекинуть файлы .mka из папки "RUS Sound [<автор(ы) озвучки>]" в одну папку с видео и переключить звуковую дорожку в плеере при просмотре.
Для просмотра с субтитрами нужно:
перекинуть файлы .ass из папки "RUS Subtitles [<автор(ы) перевода>]" в одну папку с видео - плеер подгрузит их автоматически при открытии видео.


Трекер:  [ 09-Мар-2014 11:46 ]

  

Скачать .torrent

Размер .torrent файла 138 KB


Размер: 26.26 GB
Хэш (hash) релиза: 2e48ce5ae2f78d9d205823da2101366876356a4a
Подписка на обновления:

Еще никто не оставлял запись к записи скачать торрент Нуар Noir . Будь первым!

!Обратная связь