Скачать порно через торрент ALIENS PRISNER UnionPeer.org бесплатно онлайн HD качество

Скачать новое порно 2015, 2014 новинки через торрент UnionPeer.org

Порно торрент бесплатно ЮнионПир.орг

Статистика раздачи
Размер:  213 MB   |    Зарегистрирован:  3 года   |    .torrent скачан:  493 раза   |   
Раздают:  1  
   
 
Автор Сообщение

Galfimbul

avatar Galfimbul


ALIEN'S PRISNER / エイリアンズプリズナー

Год производства: 2014 г.
Жанр: Lots of White Cream/Juices,Violation, Tentacle
Продолжительность: 9:33
Цензура: Есть во всех файлах

Язык: Японский
Озвучка: Оригинальная
Студия: CARYO_DLSite

Описание: The things that are done to a lady pilot captured by an alien.

Качество видео: GameRip
Разрешение видео: 720p
Формат видео: MPEG
Видео кодек: H.264/AVC
Аудио кодек: MP3
Видео: MPEG4 Video (H264) 1280x720 30fps 2908kbps
Аудио 1: MP3 44100Hz stereo 192kbps
Video
ID : 0
Format : AVC
Format/Info : Advanced Video Codec
Format profile : Main@L5.1
Format settings, CABAC : Yes
Format settings, ReFrames : 1 frame
Codec ID : H264
Duration : 9mn 33s
Bit rate : 2 909 Kbps
Width : 1 280 pixels
Height : 720 pixels
Display aspect ratio : 16:9
Frame rate : 30.000 fps
Color space : YUV
Chroma subsampling : 4:2:0
Bit depth : 8 bits
Scan type : Progressive
Bits/(Pixel*Frame) : 0.105
Stream size : 199 MiB (93%)

Audio
ID : 1
Format : MPEG Audio
Format version : Version 1
Format profile : Layer 3
Codec ID : 55
Codec ID/Hint : MP3
Duration : 9mn 33s
Bit rate mode : Constant
Bit rate : 192 Kbps
Channel(s) : 2 channels
Sampling rate : 44.1 KHz
Compression mode : Lossy
Stream size : 13.1 MiB (6%)
Alignment : Split accross interleaves
Interleave, duration : 33 ms (1.00 video frame)
Interleave, preload duration : 126 ms
Writing library : LAMELAME_MAJOR_VERSI


Трекер:  [ 06-Мар-2014 23:39 ]

  

Скачать .torrent

Размер .torrent файла 17 KB


Размер: 213 MB
Хэш (hash) релиза: a622df4c938d75458dcadf9174a92855b0ce65a4

Еще никто не оставлял запись к записи скачать торрент ALIENS PRISNER . Будь первым!

!Обратная связь