Скачать порно через торрент Oppai Infinity! The Animation Сисястая бесконечность UnionPeer.org бесплатно онлайн HD качество

Скачать новое порно 2015, 2014 новинки через торрент UnionPeer.org

Порно торрент бесплатно ЮнионПир.орг

Если у вас наблюдаются проблемы со скриншотами, переходом по ссылками, скачиванием торрентов - проблемы в блокировщике рекламы AdBlock. #хорошегоДня!


Статистика раздачи
Размер:  1.99 GB   |    Зарегистрирован:  3 года 8 месяцев   |    .torrent скачан:  494 раза   |   
Раздают:  1  
   
Загрузка...
 
Автор Сообщение

Galfimbul

avatar Galfimbul


Oppai Infinity! The Animation / おっぱインフィニティ∞! THE ANIMATION / Сисястая бесконечность

Год производства: 2014 г.
Жанр: Anal sex, Big tits, Group sex, Oral sex, Titsjob, School, Rape
Серии: ep. 1
Продолжительность: 1х~28 min + 25 min трейлеры
Цензура: Есть

Озвучка: Японская (Оригинальная)

Режиссер: Hayakawa Naomi
Автор оригинала: Erect Sawaru
Студия: Pink Pineapple

Описание RUS: Харука - красивая молодая девушка, которая пользуется огромной популярностью у мальчишек школы, а так же является не только прилежной ученицей, но и президентом студсовета. Как-то Хлоя признается Харуке в любви, но та отвергает чувства и ко всему прочему подбить мальчишек, что бы те изнасиловали Хлою на её глазах. Но Хлоя в долгу перед обидчицей не останется.

Описание ENG: Haruka - a beautiful young girl who is very popular with the boys school, as well as is not only a good student, but also the President of the Student Council. Once Chloe admits Haruka in love, but she rejects the feelings and everything else to knock the boys that they would be raped in front of her Chloe. But Chloe owe offender will not.

Информационные ссылки: AniDB - MAL - World Art - ХентайМаг

Качество видео: DVD5
Формат видео: DVD Video
Видео кодек: MPEG2
Аудио кодек: AC3
Видео: 720х480, (16:9), 29,970 кадров/сек, ~ 5085 Кбит/сек, NTSC
Аудио: JAP, AC-3, 2 канала, 192 Кбит/сек, 48,0 КГц
Общее
Полное имя : J:\VIDEO_TS\VTS_01_1.VOB
Формат : MPEG-PS
Размер файла : 1024 Мбайт
Продолжительность : 26 м.
Режим общего битрейта : Переменный
Общий поток : 5384 Кбит/сек

Видео
Идентификатор : 224 (0xE0)
Формат : MPEG Video
Версия формата : Version 2
Профиль формата : Main@Main
Параметр BVOP формата : Да
Параметр матрицы формата : Выборочная
Параметр GOP формата : Variable
Продолжительность : 26 м.
Вид битрейта : Переменный
Битрейт : 5085 Кбит/сек
Максимальный битрейт : 9800 Кбит/сек
Ширина : 720 пикселей
Высота : 480 пикселей
Соотношение сторон : 16:9
Частота кадров : 29,970 кадров/сек
Стандарт вещания : NTSC
Цветовое пространство : YUV
Субдискретизация насыщенности : 4:2:0
Битовая глубина : 8 бит
Тип развёртки : Чересстрочная
Порядок развёртки : Верхнее поле первое
Метод сжатия : С потерями
Бит/(Пиксели*Кадры) : 0.491
Временной код первого кадра : 01:00:10:00
Оригинал временного кода : Group of pictures header
Размер потока : 967 Мбайт (94%)

Аудио
Идентификатор : 189 (0xBD)-128 (0x80)
Формат : AC-3
Формат/Информация : Audio Coding 3
Расширение режима : CM (complete main)
Параметр Endianness формата : Big
Режим смешивания : DVD-Video
Продолжительность : 26 м.
Вид битрейта : Постоянный
Битрейт : 192 Кбит/сек
Каналы : 2 канала
Расположение каналов : Front: L R
Частота : 48,0 КГц
Битовая глубина : 16 бит
Метод сжатия : С потерями
Размер потока : 36,5 Мбайт (4%)

Меню


Трекер:  [ 05-Мар-2014 12:15 ]

  

Скачать .torrent

Размер .torrent файла 20 KB


Размер: 1.99 GB
Хэш (hash) релиза: e97619dbd422ac4fe40f23323fefd65b4217f2a5

Торренты, похожие на Oppai Infinity! The Animation Сисястая бесконечность скачать торрент

Форум Название Автор Размер S L Добавлен
Хентай, порно и эротические мультфильмы ·· Oppai Infinity! The Animation / Сисястая бесконечность (Hayakawa Naomi, PinkPineapple) (ep. 1) [cen] [2014 г. School, Students, Big breasts, Oral sex, Group sex, Anal sex, DVDRip] [jap / eng / kor / chi / rus] Galfimbul 271848067259 MB 0 0 1424179381

16:23

17-Фев-15

Еще никто не оставлял запись к записи скачать торрент Oppai Infinity! The Animation Сисястая бесконечность . Будь первым!

!Обратная связь