Скачать порно через торрент Best of Russian Institute : schoolgirls, teachers & holidays UnionPeer.org бесплатно онлайн HD качество

Скачать новое порно 2015, 2014 новинки через торрент UnionPeer.org

Порно торрент бесплатно ЮнионПир.орг

Если у вас наблюдаются проблемы со скриншотами, переходом по ссылками, скачиванием торрентов - проблемы в блокировщике рекламы AdBlock. #хорошегоДня!


Статистика раздачи
Размер:  1.53 GB   |    Зарегистрирован:  3 года 7 месяцев   |    .torrent скачан:  1021 раз   |   
Раздают:  1  
   
Загрузка...
 
Автор Сообщение

Galfimbul

avatar Galfimbul


Best of Russian Institute : schoolgirls, teachers & holidays

Год производства: 2014 г.
Страна: FR
Жанр: All sex
Продолжительность: 2h 8mn
Режиссер: Hervé Bodilis
Студия: Marc Dorcel

В ролях: Aletta Ocean, Aliz, Anna Polina, Black Angelika, Cindy Hope, Jessyca Wilson, Klarisa, Kristine Crystalis , Nasta Zya, Natalli Diangelo, Oksana, Sabrina Blond

Описание:
Summary of the movie Best of Russian Institute : schoolgirls, teachers & holidays

Have you always fantasised about white blouses, tartan skirts and little cotton knickers? Then don't delay: take a seat on the benches of this boarding school alongside gorgeous young women and let us guide you through the very private world of the RUSSIAN INSTITUTE. 1. Schoolgirls and teachers: The gorgeous boarders at the Russian Institute have an insatiable thirst for learning. And for their pleasure, an entire team of dedicated teachers is entirely at their disposal! They are always willing to give of themselves for their students. 2. Schoolgirls on holiday: The holidays are a good opportunity to make discoveries and meet new people. But it is also a time for the schoolgirls to put into practice all the things they have learned during the year: blowjobs, anal sex, double penetration... They revise everything thoroughly

Доп. информация:
Format : AVI
Format/Info : Audio Video Interleave
File size : 1.53 GiB
Duration : 2h 8mn
Overall bit rate : 1 700 Kbps

Video
ID : 0
Format : AVC
Format/Info : Advanced Video Codec
Format profile : Main@L5.1
Format settings, CABAC : Yes
Format settings, ReFrames : 1 frame
Codec ID : H264
Duration : 12s 0ms
Bit rate : 1 498 Kbps
Width : 1 280 pixels
Height : 720 pixels
Display aspect ratio : 16:9
Frame rate : 25.000 fps
Color space : YUV
Chroma subsampling : 4:2:0
Bit depth : 8 bits
Scan type : Progressive
Bits/(Pixel*Frame) : 0.065
Stream size : 1.35 GiB (88%)

Audio
ID : 1
Format : MPEG Audio
Format version : Version 1
Format profile : Layer 3
Codec ID : 55
Codec ID/Hint : MP3
Duration : 2h 8mn
Bit rate mode : Constant
Bit rate : 192 Kbps
Channel(s) : 2 channels
Sampling rate : 44.1 KHz
Compression mode : Lossy
Stream size : 177 MiB (11%)
Alignment : Split accross interleaves
Interleave, duration : 41 ms (1.03 video frame)
Interleave, preload duration : 136 ms
Writing library : LAMELAME_MAJOR_VERSI


Трекер:  [ 01-Мар-2014 20:00 ]

  

Скачать .torrent

Размер .torrent файла 15 KB


Размер: 1.53 GB
Хэш (hash) релиза: ccf5134b306034f1777a3d9de5a98886c684fafb

Еще никто не оставлял запись к записи скачать торрент Best of Russian Institute : schoolgirls, teachers & holidays . Будь первым!

!Обратная связь