Скачать через торрент Мюнхен Munich 3D Фильм бесплатно в хорошем качестве torrent

Скачивайте на UnionPeer.org фильмы через торрент без регистрации. Новинки кино в хорошем качестве через торрент. На UnionPeer.org можно скачать через торрент фильмы 2014 и 2015 годов. Самые новые фильмы.

Скачать торрент Мюнхен Munich 3D бесплатно через .torrent фильм мультфильм сериал

Если у вас наблюдаются проблемы со скриншотами, переходом по ссылками, скачиванием торрентов - проблемы в блокировщике рекламы AdBlock. #хорошегоДня!


Статистика раздачи
Размер:  4.85 GB   |    Зарегистрирован:  3 года 7 месяцев   |    .torrent скачан:  71 раз   |   
Раздают:  1  
   
Загрузка...
 
Автор Сообщение

Galfimbul

avatar Galfimbul


Год выпуска: 2013
Страна: Россия
Жанр: Документальное,любительское кино-путеводитель
Продолжительность: 0:43:27

Перевод: Не требуется
Русские субтитры: нет

Состав и описание раздачи:
Мюнхен, Германия — город-жемчужина Центральной Европы, столица федеральной земли Бавария,
расположившаяся на реке Изар на юге страны. Город Мюнхен — один из самых привлекательных в регионе с туристической точки зрения, с богатой историей и культурными традициями.
Центральная площадь города, на которой стоит колонна Девы Марии, поставленная Максимилианом I — Мариенплац ,
в районе которой расположены многие достопримечательности,в том числе старая и новая ратушаю
Мюнхен славится своими пивоваренными традициями. В городе находятся шесть крупных пивоварен, которые снабжают пивом знаменитый на весь мир Октоберфест — праздник пива,
кренделей, жареных курочек и каруселей, ежегодно проводящийся в конце сентября — начале октября на Терезином лугу.



Качество: HDTV
Контейнер: MKV
Формат 3D: Half SideBySide / Горизонтальная анаморфная стереопара
Порядок ракурсов: левый ракурс первый
Видео кодек: AVC
Аудио кодек: AC3
Видео: 15,2 Мбит/сек, 1920х1080p, 16:9, 25 кадров/сек. (PAL)
Аудио: 448 Кбит/сек, 48,0 Кгц,16 Бит, 6 Каналов.
Дюссельдорф (Германия): [url]http://цензор/forum/viewtopic.php?t=4502017[/url]
Таиланд (Пхукет) [url]http://цензор/forum/viewtopic.php?t=4290836[/url]
С.Перербург,Петергоф,Валдай [url]http://цензор/forum/viewtopic.php?t=4109540[/url]
Прага (Чехия) 1-я Часть [url]http://цензор/forum/viewtopic.php?t=3982492[/url]
Прага (Чехия) 2-я Часть [url]http://цензор/forum/viewtopic.php?t=3985047[/url]
Царское село [url]http://цензор/forum/viewtopic.php?t=4465515[/url]
Вена (Австрия) [url]http://цензор/forum/viewtopic.php?t=4074277[/url]
Лесные белки зимой [url]http://цензор/forum/viewtopic.php?t=4341447[/url]
Перовский дворик [url]http://цензор/forum/viewtopic.php?t=4432419[/url]
Октоберфест-2013 [url]http://цензор/forum/viewtopic.php?t=4548629[/url]
General
Complete name : S:\Моё кино архив\Моё HD кино в 3D для инета\Кино\Мюнхен3D(КИВ)-инет(Стереопара).mpg.mkv
Format : Matroska
Format version : Version 1
File size : 4.85 GiB
Duration : 43mn 27s
Overall bit rate mode : Variable
Overall bit rate : 16.0 Mbps
Writing application : Matroska Muxer v1.0.0
Writing library : libebml v0.7.8 + libmatroska v0.8.1

Video
ID : 1
Format : AVC
Format/Info : Advanced Video Codec
Format profile : High@L4.0
Format settings, CABAC : Yes
Format settings, ReFrames : 2 frames
Codec ID : V_MS/VFW/FOURCC / H264
Duration : 43mn 27s
Bit rate mode : Variable
Bit rate : 15.2 Mbps
Maximum bit rate : 17.0 Mbps
Width : 1 920 pixels
Height : 1 080 pixels
Display aspect ratio : 16:9
Frame rate mode : Constant
Frame rate : 25.000 fps
Color space : YUV
Chroma subsampling : 4:2:0
Bit depth : 8 bits
Scan type : Interlaced
Bits/(Pixel*Frame) : 0.294
Stream size : 4.62 GiB (95%)
Language : English
Default : Yes
Forced : No

Audio
ID : 2
Format : AC-3
Format/Info : Audio Coding 3
Mode extension : CM (complete main)
Format settings, Endianness : Big
Codec ID : A_AC3
Duration : 43mn 27s
Bit rate mode : Constant
Bit rate : 448 Kbps
Channel(s) : 6 channels
Channel positions : Front: L C R, Side: L R, LFE
Sampling rate : 48.0 KHz
Bit depth : 16 bits
Compression mode : Lossy
Stream size : 139 MiB (3%)
Language : English
Default : Yes
Forced : No


Трекер:  [ 28-Фев-2014 12:00 ]

  

Скачать .torrent

Размер .torrent файла 12 KB


Размер: 4.85 GB
Хэш (hash) релиза: 3c79f823bad03a2f688a4e72daeeafd5e9757c2d
Подписка на обновления:

Торренты, похожие на Мюнхен Munich 3D скачать торрент

Форум Название Автор Размер S L Добавлен
3D Документальные фильмы ·· Мюнхен / Munich 3D (КИВ) [2013, Документальное кино-путеводитель, HDTV] Dualstream / Раздельная стереопара Galfimbul 77389043247.21 GB 0 0 1393578245

12:04

28-Фев-14

Еще никто не оставлял запись к записи скачать торрент Мюнхен Munich 3D . Будь первым!

!Обратная связь