Скачать через торрент Золотые моменты Олимпиады Фильм бесплатно в хорошем качестве torrent

Скачивайте на UnionPeer.org фильмы через торрент без регистрации. Новинки кино в хорошем качестве через торрент. На UnionPeer.org можно скачать через торрент фильмы 2014 и 2015 годов. Самые новые фильмы.

Скачать торрент Золотые моменты Олимпиады бесплатно через .torrent фильм мультфильм сериал

Если у вас наблюдаются проблемы со скриншотами, переходом по ссылками, скачиванием торрентов - проблемы в блокировщике рекламы AdBlock. #хорошегоДня!


Статистика раздачи
Размер:  1.97 GB   |    Зарегистрирован:  3 года 7 месяцев   |    .torrent скачан:  60 раз   |   
Раздают:  1  
   
Загрузка...
 
Автор Сообщение

Galfimbul

avatar Galfimbul


Золотые моменты Олимпиады (2014.02.23) HDTV [H.264/1080i-LQ]

Вид спорта: Документальный фильм
Участники: Юлия Липницкая, Альберт Демченко, Евгений Плющенко, Виктор Ан, Татьяна Волосожар, Максим Траньков, Ольга Фаткулина и другие…
Дата/Год выпуска: 2014
Описание: Олимпийские игры в Сочи подарили нам имена новых спортивных героев - этот фильм посвящен нашим медалистам. Мы покажем самые яркие моменты их триумфа.
Расскажем, как шли они к этой победе. Кто вдохновлял их. Узнаем, через что пришлось пройти спортсменам, чтобы заслужить звание Олимпийского Чемпиона…

Качество: HDTV
Формат видео: MPEG-TS
Видео: AVC 1920x1080 50i 4320 kbps
Аудио: AC-3, 6.0ch 384 kbps
Продолжительность": 00:56:53
General
ID : 1 (0x1)
Complete name : Золотые моменты Олимпиады (2014.02.23).ts
Format : MPEG-TS
File size : 1.97 GiB
Duration : 56mn 53s
Overall bit rate : 4 953 Kbps

Video
ID : 845 (0x34D)
Menu ID : 1 (0x1)
Format : AVC
Format/Info : Advanced Video Codec
Format profile : High@L4.0
Format settings, CABAC : Yes
Format settings, ReFrames : 4 frames
Format settings, GOP : M=4, N=32
Codec ID : 27
Duration : 56mn 53s
Bit rate : 4 320 Kbps
Width : 1 920 pixels
Height : 1 080 pixels
Display aspect ratio : 16:9
Frame rate : 25.000 fps
Color space : YUV
Chroma subsampling : 4:2:0
Bit depth : 8 bits
Scan type : Interlaced
Scan order : Top Field First
Bits/(Pixel*Frame) : 0.083
Stream size : 1.72 GiB (87%)
Color primaries : BT.709-5, BT.1361, IEC 61966-2-4, SMPTE RP177
Transfer characteristics : BT.709-5, BT.1361
Matrix coefficients : BT.709-5, BT.1361, IEC 61966-2-4 709, SMPTE RP177

Audio
ID : 985 (0x3D9)
Menu ID : 1 (0x1)
Format : AC-3
Format/Info : Audio Coding 3
Mode extension : CM (complete main)
Codec ID : 6
Duration : 56mn 53s
Bit rate mode : Constant
Bit rate : 384 Kbps
Channel(s) : 6 channels
Channel positions : Front: L C R, Side: L R, LFE
Sampling rate : 48.0 KHz
Bit depth : 16 bits
Compression mode : Lossy
Stream size : 156 MiB (8%)
Language : English
sdfds


Трекер:  [ 24-Фев-2014 11:37 ]

  

Скачать .torrent

Размер .torrent файла 40 KB


Размер: 1.97 GB
Хэш (hash) релиза: 3e94eef955190d223a33484dd564bcfe5c580824
Подписка на обновления:

Торренты, похожие на Золотые моменты Олимпиады скачать торрент

Форум Название Автор Размер S L Добавлен
Зимние Олимпийские игры в Сочи 2014 ·· XXII Зимние Олимпийские Игры 2014. Золотые моменты Олимпиады / Первый Канал [23.02.2014 г., Олимпиада, Документальный, DVB, AVC] Galfimbul 12893859681.2 GB 0 0 1393187305

23:28

23-Фев-14

Еще никто не оставлял запись к записи скачать торрент Золотые моменты Олимпиады . Будь первым!

!Обратная связь