Скачать через торрент XXII Зимние Олимпийские Игры 2014. Золотые моменты Олимпиады Первый Канал Фильм бесплатно в хорошем качестве torrent

Скачивайте на UnionPeer.org фильмы через торрент без регистрации. Новинки кино в хорошем качестве через торрент. На UnionPeer.org можно скачать через торрент фильмы 2014 и 2015 годов. Самые новые фильмы.

Скачать торрент XXII Зимние Олимпийские Игры 2014. Золотые моменты Олимпиады Первый Канал бесплатно через .torrent фильм мультфильм сериал

Если у вас наблюдаются проблемы со скриншотами, переходом по ссылками, скачиванием торрентов - проблемы в блокировщике рекламы AdBlock. #хорошегоДня!


Статистика раздачи
Размер:  1.2 GB   |    Зарегистрирован:  3 года 7 месяцев   |    .torrent скачан:  118 раз   |   
Раздают:  1  
   
Загрузка...
 
Автор Сообщение

Galfimbul

avatar Galfimbul


Золотые моменты Олимпиады

Комментарий: Профессиональный
Язык комментариев: Русский
Продолжительность: 00:57:10

Описание: Олимпийские игры в Сочи подарили нам имена новых спортивных героев - этот фильм посвящен нашим медалистам. Мы покажем самые яркие моменты их триумфа.

Расскажем, как шли они к этой победе. Кто вдохновлял их. Узнаем, через что пришлось пройти спортсменам, чтобы заслужить звание Олимпийского Чемпиона…

В фильме принимают участие: Юлия Лепницкая, Альберт Демченко, Евгений Плющенко, Виктор Ан, Татьяна Волосожар, Максим Траньков, Ольга Фаткулина и другие…

Автор рипа: sanchez2011

Качество: DVB
Формат: MPEG-TS
Видео кодек: AVC
Аудио кодек: MP2
Видео: MPEG4 Video (H264) 720x576 (16:9) 25fps 2700kbps
Аудио: MPEG Audio 48000Hz stereo 192kbps
GeneralID : 1 (0x1)Complete name : E:\Олимпиада 2014\Золотые моменты Олимпиады в Сочи.tsFormat : MPEG-TSFile size : 1.20 GiBDuration : 57mn 10sOverall bit rate mode : VariableOverall bit rate : 3 006 Kbps

VideoID : 1011 (0x3F3)Menu ID : 1 (0x1)Format : AVCFormat/Info : Advanced Video CodecFormat profile : Main@L3.0Format settings, CABAC : YesFormat settings, ReFrames : 3 framesFormat settings, GOP : M=4, N=28Codec ID : 27Duration : 57mn 10sBit rate : 2 664 KbpsWidth : 720 pixelsHeight : 576 pixelsDisplay aspect ratio : 16:9Frame rate : 25.000 fpsStandard : ComponentColor space : YUVChroma subsampling : 4:2:0Bit depth : 8 bitsScan type : InterlacedScan order : Top Field FirstBits/(Pixel*Frame) : 0.257Stream size : 1.06 GiB (89%)Color primaries : BT.601 PALTransfer characteristics : BT.470 System B, BT.470 System GMatrix coefficients : BT.601

AudioID : 1012 (0x3F4)Menu ID : 1 (0x1)Format : MPEG AudioFormat version : Version 1Format profile : Layer 2Codec ID : 3Duration : 57mn 10sBit rate mode : ConstantBit rate : 192 KbpsChannel(s) : 2 channelsSampling rate : 48.0 KHzCompression mode : LossyStream size : 78.5 MiB (6%)Language : English

TextID : 1014 (0x3F6)-100Menu ID : 1 (0x1)Format : TeletextLanguage : Russian

MenuID : 256 (0x100)Menu ID : 1 (0x1)Duration : 57mn 10sList : 1011 (0x3F3) (AVC) / 1012 (0x3F4) (MPEG Audio, English) / 1014 (0x3F6) ()Language : / English


Трекер:  [ 23-Фев-2014 23:28 ]

  

Скачать .torrent

Размер .torrent файла 6 KB


Размер: 1.2 GB
Хэш (hash) релиза: 0e0aac976453f4430f6efc918b5eea22fb3b59e1
Подписка на обновления:

Еще никто не оставлял запись к записи скачать торрент XXII Зимние Олимпийские Игры 2014. Золотые моменты Олимпиады Первый Канал . Будь первым!

!Обратная связь