Скачать через торрент XXII Зимние Олимпийские Игры 2014. Бобслей. Мужчины. Четверки. 2-й, 3-й и 4-й заезды Фильм бесплатно в хорошем качестве torrent

Скачивайте на UnionPeer.org фильмы через торрент без регистрации. Новинки кино в хорошем качестве через торрент. На UnionPeer.org можно скачать через торрент фильмы 2014 и 2015 годов. Самые новые фильмы.

Скачать торрент XXII Зимние Олимпийские Игры 2014. Бобслей. Мужчины. Четверки. 2-й, 3-й и 4-й заезды бесплатно через .torrent фильм мультфильм сериал

Если у вас наблюдаются проблемы со скриншотами, переходом по ссылками, скачиванием торрентов - проблемы в блокировщике рекламы AdBlock. #хорошегоДня!


Статистика раздачи
Размер:  16.31 GB   |    Зарегистрирован:  3 года 7 месяцев   |    .torrent скачан:  31 раз   |   
Раздают:  1  
   
Загрузка...
 
Автор Сообщение

Galfimbul

avatar Galfimbul


XXII Зимние Олимпийские Игры 2014. Бобслей. Мужчины. Четверки. 2-й, 3-й и 4-й заезды

Вид спорта: Бобслей
Дата/Год выпуска: 23.02.14
Язык комментариев: русский

Автор записи: SashaR.

Качество: DVB-S2 Remux
Формат видео: TS
Видео: AVC, 1920x1080, 16:9, 15.2 Mbps, 25 fps
Аудио: MP2, 192 kbps, 48 kHz, 2 channels
F:\Олимпиада\Бобслей. Мужчины. Четвёрки\Бобслей, Четвёрки. 3-я попытка (Спорт 1 HD).ts
General #6
ID : 6 (0x6)
Complete name : F:\Олимпиада\Бобслей. Мужчины. Четвёрки\Бобслей, Четвёрки. 3-я попытка (Спорт 1 HD).ts
Format : MPEG-TS
File size : 6.46 GiB
Duration : 1h 15mn
Overall bit rate mode : Variable
Overall bit rate : 12.3 Mbps
Video #303
ID : 303 (0x12F)
Menu ID : 20103 (0x4E87)
Format : AVC
Format/Info : Advanced Video Codec
Format profile : High@L4.0
Format settings, CABAC : Yes
Format settings, ReFrames : 3 frames
Codec ID : 27
Duration : 1h 15mn
Bit rate : 11.5 Mbps
Width : 1 920 pixels
Height : 1 080 pixels
Display aspect ratio : 16:9
Frame rate : 25.000 fps
Standard : Component
Color space : YUV
Chroma subsampling : 4:2:0
Bit depth : 8 bits
Scan type : Interlaced
Scan order : Top Field First
Bits/(Pixel*Frame) : 0.222
Stream size : 6.04 GiB (93%)
Color primaries : BT.709
Transfer characteristics : BT.709
Matrix coefficients : BT.709
Audio #403
ID : 403 (0x193)
Menu ID : 20103 (0x4E87)
Format : MPEG Audio
Format version : Version 1
Format profile : Layer 2
Codec ID : 4
Duration : 1h 15mn
Bit rate mode : Constant
Bit rate : 192 Kbps
Channel count : 2 channels
Sampling rate : 48.0 KHz
Compression mode : Lossy
Delay relative to video : -11ms
Stream size : 103 MiB (2%)
Language : Russian

F:\Олимпиада\Бобслей. Мужчины. Четвёрки\Бобслей, Четвёрки. 2-я попытка (HD Спорт).ts
General #6
ID : 6 (0x6)
Complete name : F:\Олимпиада\Бобслей. Мужчины. Четвёрки\Бобслей, Четвёрки. 2-я попытка (HD Спорт).ts
Format : MPEG-TS
File size : 3.25 GiB
Duration : 32mn 59s
Overall bit rate mode : Variable
Overall bit rate : 14.1 Mbps
Video #322
ID : 322 (0x142)
Menu ID : 12102 (0x2F46)
Format : AVC
Format/Info : Advanced Video Codec
Format profile : High@L4.0
Format settings, CABAC : Yes
Format settings, ReFrames : 3 frames
Codec ID : 27
Duration : 32mn 59s
Bit rate : 12.8 Mbps
Width : 1 920 pixels
Height : 1 080 pixels
Display aspect ratio : 16:9
Frame rate : 25.000 fps
Standard : Component
Color space : YUV
Chroma subsampling : 4:2:0
Bit depth : 8 bits
Scan type : Interlaced
Scan order : Top Field First
Bits/(Pixel*Frame) : 0.246
Stream size : 2.94 GiB (90%)
Color primaries : BT.709
Transfer characteristics : BT.709
Matrix coefficients : BT.709
Audio #402
ID : 402 (0x192)
Menu ID : 12102 (0x2F46)
Format : AC-3
Format/Info : Audio Coding 3
Mode extension : CM (complete main)
Format settings, Endianness : Big
Codec ID : 6
Duration : 32mn 58s
Bit rate mode : Constant
Bit rate : 448 Kbps
Channel count : 5 channels
Channel positions : Front: L C R, Side: L R
Sampling rate : 48.0 KHz
Bit depth : 16 bits
Compression mode : Lossy
Delay relative to video : 55ms
Stream size : 106 MiB (3%)
Language : Russian
Language, more info : Clean effects
Audio #422
ID : 422 (0x1A6)
Menu ID : 12102 (0x2F46)
Format : MPEG Audio
Format version : Version 1
Format profile : Layer 2
Codec ID : 4
Duration : 32mn 58s
Bit rate mode : Constant
Bit rate : 192 Kbps
Channel count : 2 channels
Sampling rate : 48.0 KHz
Compression mode : Lossy
Delay relative to video : 72ms
Stream size : 45.3 MiB (1%)
Language : Russian
Language, more info : Clean effects
2-я попытка - 00:32:59
3-я попытка - 01:15:15
4-я попытка - 01:12:00


Трекер:  [ 23-Фев-2014 20:52 ]

  

Скачать .torrent

Размер .torrent файла 83 KB


Размер: 16.31 GB
Хэш (hash) релиза: ad3e8811917148440c97a3951018d2bc53cafa0c
Подписка на обновления:

Еще никто не оставлял запись к записи скачать торрент XXII Зимние Олимпийские Игры 2014. Бобслей. Мужчины. Четверки. 2-й, 3-й и 4-й заезды . Будь первым!

!Обратная связь