Скачать через торрент XXII Зимние Олимпийские Игры 2014. Лыжные гонки. Мужчины. Масс-старт 50 км Россия HD Фильм бесплатно в хорошем качестве torrent

Скачивайте на UnionPeer.org фильмы через торрент без регистрации. Новинки кино в хорошем качестве через торрент. На UnionPeer.org можно скачать через торрент фильмы 2014 и 2015 годов. Самые новые фильмы.

Скачать торрент XXII Зимние Олимпийские Игры 2014. Лыжные гонки. Мужчины. Масс-старт 50 км Россия HD бесплатно через .torrent фильм мультфильм сериал

Если у вас наблюдаются проблемы со скриншотами, переходом по ссылками, скачиванием торрентов - проблемы в блокировщике рекламы AdBlock. #хорошегоДня!


Статистика раздачи
Размер:  3.12 GB   |    Зарегистрирован:  3 года 9 месяцев   |    .torrent скачан:  54 раза   |   
Раздают:  1  
   
Загрузка...
 
Автор Сообщение

Galfimbul

avatar Galfimbul


XXII Зимние Олимпийские Игры 2014. Лыжные гонки. Мужчины. Масс-старт 50 км

Вид спорта: Лыжные гонки
Комментарий: Профессиональный
Язык комментариев: Русский (Дмитрий Губерниев и Сергей Крянин)

Описание: XXII Зимние Олимпийские Игры 2014. Лыжные гонки. Мужчины. Масс-старт 50 км.

Присутствует цветочная церемония!
Автор рипа: sanchez2011

Качество: HDTVRip
Формат: MKV
Видео кодек: AVC
Аудио кодек: MP3
Видео: MPEG4 Video (H264) 1280x720 (16:9) 3000kbps 25fps
Аудио: MPEG Audio Layer 3 48000Hz stereo 128kbps
Все результаты соревнований

Продолжительность: 02:22:47
GeneralUnique ID : 222340055686545323652942187083681864310 (0xA7452319884ED852B654C3F48A619A76)Complete name : E:\Олимпиада 2014\XXII Зимние Олимпийские Игры 2014. 23.02.2014 Лыжные гонки. Мужчины. Масс-старт 50 км.mkvFormat : MatroskaFormat version : Version 2File size : 3.12 GiBDuration : 2h 22mnOverall bit rate : 3 133 KbpsWriting application : XviD4PSP 6.0 / 53.6.0Writing library : XviD4PSP 6.0 / 53.6.0

VideoID : 1Format : AVCFormat/Info : Advanced Video CodecFormat profile : High@L4.1Format settings, CABAC : YesFormat settings, ReFrames : 3 framesCodec ID : V_MPEG4/ISO/AVCDuration : 2h 22mnBit rate : 3 000 KbpsWidth : 1 280 pixelsHeight : 720 pixelsDisplay aspect ratio : 16:9Frame rate mode : ConstantFrame rate : 25.000 fpsColor space : YUVChroma subsampling : 4:2:0Bit depth : 8 bitsScan type : ProgressiveBits/(Pixel*Frame) : 0.130Stream size : 2.94 GiB (94%)Writing library : x264 core 116 r2019M 9cc407dEncoding settings : cabac=1 / ref=3 / deblock=1:0:0 / analyse=0x3:0x133 / me=hex / subme=7 / psy=1 / psy_rd=1.00:0.20 / mixed_ref=1 / me_range=16 / chroma_me=1 / trellis=1 / 8x8dct=1 / cqm=0 / deadzone=21,11 / fast_pskip=1 / chroma_qp_offset=-3 / threads=8 / sliced_threads=0 / nr=0 / decimate=1 / interlaced=0 / bluray_compat=0 / constrained_intra=0 / bframes=3 / b_pyramid=1 / b_adapt=2 / b_bias=0 / direct=3 / weightb=1 / open_gop=0 / weightp=2 / keyint=250 / keyint_min=25 / scenecut=40 / intra_refresh=0 / rc_lookahead=40 / rc=abr / mbtree=1 / bitrate=3000 / ratetol=1.0 / qcomp=0.60 / qpmin=10 / qpmax=51 / qpstep=4 / ip_ratio=1.40 / aq=1:1.00Default : YesForced : No

AudioID : 2Format : MPEG AudioFormat version : Version 1Format profile : Layer 3Mode : Joint stereoCodec ID : A_MPEG/L3Codec ID/Hint : MP3Duration : 2h 22mnBit rate mode : ConstantBit rate : 128 KbpsChannel(s) : 2 channelsSampling rate : 48.0 KHzCompression mode : LossyStream size : 131 MiB (4%)Language : RussianDefault : YesForced : No


Трекер:  [ 23-Фев-2014 20:52 ]

  

Скачать .torrent

Размер .torrent файла 16 KB


Размер: 3.12 GB
Хэш (hash) релиза: f228223e1ee67f3fc53178d547721ee2db778e13
Подписка на обновления:

Торренты, похожие на XXII Зимние Олимпийские Игры 2014. Лыжные гонки. Мужчины. Масс-старт 50 км Россия HD скачать торрент

Форум Название Автор Размер S L Добавлен
Спорт ·· XXII Зимние Олимпийские Игры 2014 (Сочи, Россия). Лыжные гонки. Мужчины. Масс-старт 50 км / Россия HD [23.02.2014, Лыжные гонки, HDTVRip/720p/50fps, MKV/H.264, RU] Galfimbul 55571136635.18 GB 0 0 1503984030

08:20

29-Авг-17

Еще никто не оставлял запись к записи скачать торрент XXII Зимние Олимпийские Игры 2014. Лыжные гонки. Мужчины. Масс-старт 50 км Россия HD . Будь первым!

!Обратная связь