Скачать через торрент XXII Зимние Олимпийские Игры 2014. Бобслей. Мужчины. Четверки. 3-й и 4-й заезды Россия HD Фильм бесплатно в хорошем качестве torrent

Скачивайте на UnionPeer.org фильмы через торрент без регистрации. Новинки кино в хорошем качестве через торрент. На UnionPeer.org можно скачать через торрент фильмы 2014 и 2015 годов. Самые новые фильмы.

Скачать торрент XXII Зимние Олимпийские Игры 2014. Бобслей. Мужчины. Четверки. 3-й и 4-й заезды Россия HD бесплатно через .torrent фильм мультфильм сериал

Если у вас наблюдаются проблемы со скриншотами, переходом по ссылками, скачиванием торрентов - проблемы в блокировщике рекламы AdBlock. #хорошегоДня!


Статистика раздачи
Размер:  9.06 GB   |    Зарегистрирован:  3 года 7 месяцев   |    .torrent скачан:  41 раз   |   
Раздают:  1  
   
Загрузка...
 
Автор Сообщение

Galfimbul

avatar Galfimbul


XXII Зимние Олимпийские Игры 2014. Бобслей. Мужчины. Четверки. 3-й и 4-й заезды

Вид спорта: Бобслей
Комментарий: Профессиональный
Язык комментариев: Русский (Алексей Попов)
Описание: XXII Зимние Олимпийские Игры 2014. Бобслей. Мужчины. Четверки. 3-й и 4-й заезды.

Присутствует церемония награждения!

Автор рипа: sanchez2011

Качество: HDTV
Формат: MPEG-TS
Видео кодек: AVC
Аудио кодек: MP2
Видео: MPEG4 Video (H264) 1920x1080 10.8Mbps 25fps
Аудио: MPEG Audio 48000Hz stereo 224kbps
Все результаты соревнований

Продолжительность: 01:51:26
GeneralID : 1 (0x1)Complete name : E:\Олимпиада 2014\XXII Зимние Олимпийские Игры 2014. 23.02.2014 Бобслей. Мужчины. Четверки. 3-й и 4-й заезды.tsFormat : MPEG-TSFile size : 9.06 GiBDuration : 1h 51mnOverall bit rate mode : VariableOverall bit rate : 11.6 Mbps

VideoID : 1901 (0x76D)Menu ID : 1 (0x1)Format : AVCFormat/Info : Advanced Video CodecFormat profile : High@L4.0Format settings, CABAC : YesFormat settings, ReFrames : 3 framesCodec ID : 27Duration : 1h 51mnBit rate : 10.8 MbpsWidth : 1 920 pixelsHeight : 1 080 pixelsDisplay aspect ratio : 16:9Frame rate : 25.000 fpsStandard : ComponentColor space : YUVChroma subsampling : 4:2:0Bit depth : 8 bitsScan type : InterlacedScan order : Top Field FirstBits/(Pixel*Frame) : 0.209Stream size : 8.44 GiB (93%)Color primaries : BT.709Transfer characteristics : BT.709Matrix coefficients : BT.709

AudioID : 2901 (0xB55)Menu ID : 1 (0x1)Format : MPEG AudioFormat version : Version 1Format profile : Layer 2Codec ID : 3Duration : 1h 51mnBit rate mode : ConstantBit rate : 224 KbpsChannel(s) : 2 channelsSampling rate : 48.0 KHzCompression mode : LossyStream size : 179 MiB (2%)Language : Russian


Трекер:  [ 23-Фев-2014 16:04 ]

  

Скачать .torrent

Размер .torrent файла 46 KB


Размер: 9.06 GB
Хэш (hash) релиза: c2f18f5dd697b276ec0dd86a5f6648fa709d413b
Подписка на обновления:

Торренты, похожие на XXII Зимние Олимпийские Игры 2014. Бобслей. Мужчины. Четверки. 3-й и 4-й заезды Россия HD скачать торрент

Форум Название Автор Размер S L Добавлен
Зимние Олимпийские игры в Сочи 2014 ·· XXII Зимние Олимпийские Игры 2014. Бобслей. Мужчины. Четверки. 3-й и 4-й заезды / Россия HD [23.02.2014 г., Бобслей, HDTVRip, 400p, AVI, XviD] Galfimbul 13687828481.27 GB 0 0 1393177932

20:52

23-Фев-14

Еще никто не оставлял запись к записи скачать торрент XXII Зимние Олимпийские Игры 2014. Бобслей. Мужчины. Четверки. 3-й и 4-й заезды Россия HD . Будь первым!

!Обратная связь