Скачать через торрент Вишнёвые шалости Sakura Trick бесплатно Аниме Все серии на русском torrent

Если у вас наблюдаются проблемы со скриншотами, переходом по ссылками, скачиванием торрентов - проблемы в блокировщике рекламы AdBlock. #хорошегоДня!


Статистика раздачи
Размер:  2.03 GB   |    Зарегистрирован:  3 года 6 месяцев   |    .torrent скачан:  47 раз   |   
Раздают:  1  
   
Загрузка...
 
Автор Сообщение

Polarnik

avatar Polarnik


Вишнёвые шалости / Шалости под сакурой / Sakura Trick
Страна: Япония
Год выпуска: 2014 г.
Жанр: Повседневность, школа, сёдзе-ай
Продолжительность: 12 эп. по 25 мин
русские субтитры: внешним файлом
Перевод текста и лирики: ShimaPillow
Редактор: Bladex.dll
Оформление субтитров: Surokune
QC: ivdos.
Перевод песен/Оформление: LeoDreaM
Переводчик: Усатый Ня

Режиссер: Исикура Кэнъити

Студия:

Описание: Школа наших героинь будет закрыта через 3 года. Зовут их Харука и Юу. Однажды поцеловавшись их отношения стали становится всё крепче и крепче...

Равка: Zero-Raws
Хардсаб: Отсутствует
Качество: HDTVRip
Формат видео: mp4
Видео: AVC, 8 bits, 1280x720; 23.976 fps; 1324 Kbps, (16:9)
Аудио:
1. JP - AAC, 48.0 KHz, 192 kbps, 2 ch
01. Цветение сакуры началось
02. Ещё одно цветение сакуры
03. Старшая сестра - президент
04. Неудачный план?
Общее
Полное имя : H:\[Zero-Raws]\[Zero-Raws] Sakura Trick\[Zero-Raws] Sakura Trick - 01 (TBS 1280x720 x264 AAC).mp4
Формат : MPEG-4
Профиль формата : Base Media
Идентификатор кодека : isom
Размер файла : 266 Мбайт
Продолжительность : 24 м.
Режим общего битрейта : Переменный
Общий поток : 1517 Кбит/сек
Дата кодирования : UTC 2014-01-09 18:46:47
Дата пометки : UTC 2014-01-09 18:46:47

Видео
Идентификатор : 1
Формат : AVC
Формат/Информация : Advanced Video Codec
Профиль формата : High@L3.1
Параметр CABAC формата : Да
Параметр ReFrames формата : 4 кадра
Идентификатор кодека : avc1
Идентификатор кодека/Информация : Advanced Video Coding
Продолжительность : 24 м.
Битрейт : 1324 Кбит/сек
Максимальный битрейт : 7517 Кбит/сек
Ширина : 1280 пикселей
Высота : 720 пикселей
Соотношение сторон : 16:9
Режим частоты кадров : Постоянный
Частота кадров : 23,976 кадра/сек
Цветовое пространство : YUV
Субдискретизация насыщенности : 4:2:0
Битовая глубина : 8 бит
Тип развёртки : Прогрессивная
Бит/(Пиксели*Кадры) : 0.060
Размер потока : 232 Мбайт (87%)
Библиотека кодирования : x264 core 133 r2334 a3ac64b
Настройки программы : cabac=1 / ref=3 / deblock=1:0:0 / analyse=0x3:0x113 / me=hex / subme=7 / psy=1 / psy_rd=1.00:0.00 / mixed_ref=1 / me_range=16 / chroma_me=1 / trellis=1 / 8x8dct=1 / cqm=0 / deadzone=21,11 / fast_pskip=1 / chroma_qp_offset=-2 / threads=12 / lookahead_threads=2 / sliced_threads=0 / nr=0 / decimate=1 / interlaced=0 / bluray_compat=0 / constrained_intra=0 / bframes=3 / b_pyramid=2 / b_adapt=1 / b_bias=0 / direct=1 / weightb=1 / open_gop=0 / weightp=2 / keyint=250 / keyint_min=23 / scenecut=40 / intra_refresh=0 / rc_lookahead=40 / rc=crf / mbtree=1 / crf=19.5 / qcomp=0.60 / qpmin=0 / qpmax=69 / qpstep=4 / ip_ratio=1.40 / aq=1:1.00
Дата кодирования : UTC 2014-01-09 18:25:30
Дата пометки : UTC 2014-01-09 18:46:48

Аудио
Идентификатор : 2
Формат : AAC
Формат/Информация : Advanced Audio Codec
Профиль формата : LC
Идентификатор кодека : 40
Продолжительность : 24 м.
Вид битрейта : Переменный
Битрейт : 192 Кбит/сек
Максимальный битрейт : 194 Кбит/сек
Каналы : 2 канала
Расположение каналов : Front: L R
Частота : 48,0 КГц
Метод сжатия : С потерями
Размер потока : 33,1 Мбайт (12%)
Заголовок : aac#trackID=1:lang=Japanese@GPAC0.5.1-DEV-rev4708
Язык : Japanese
Дата кодирования : UTC 2014-01-09 18:46:47
Дата пометки : UTC 2014-01-09 18:46:48


Трекер:  [ 02-Мар-2014 20:12 ]

  

Скачать .torrent

Размер .torrent файла 13 KB


Размер: 2.03 GB
Хэш (hash) релиза: a23387f17580ba5b72e598d0d53d29da5f6e781a
Подписка на обновления:

Еще никто не оставлял запись к записи скачать торрент Вишнёвые шалости Sakura Trick . Будь первым!

!Обратная связь