Скачать через торрент XXII Зимние Олимпийские Игры 2014 Дневник Олимпиады Фильм бесплатно в хорошем качестве torrent

Скачивайте на UnionPeer.org фильмы через торрент без регистрации. Новинки кино в хорошем качестве через торрент. На UnionPeer.org можно скачать через торрент фильмы 2014 и 2015 годов. Самые новые фильмы.

Скачать торрент XXII Зимние Олимпийские Игры 2014 Дневник Олимпиады бесплатно через .torrent фильм мультфильм сериал

Если у вас наблюдаются проблемы со скриншотами, переходом по ссылками, скачиванием торрентов - проблемы в блокировщике рекламы AdBlock. #хорошегоДня!


Статистика раздачи
Размер:  526 MB   |    Зарегистрирован:  3 года 7 месяцев   |    .torrent скачан:  41 раз   |   
Раздают:  1  
   
Загрузка...
 
Автор Сообщение

Galfimbul

avatar Galfimbul


Дневник Олимпиады. Выпуск №28. 22.02.2014 - Вечер

Год выпуска: 2014
Дата эфира: 22 февраля
Ведущий: Дмитрий Губерниев
Язык комментариев: Русский
Продолжительность: 00:24:46

Описание: Вечерний выпуск за 22 февраля 2014 г. Дневника Олимпиады ВГТРК.

Автор рипа: sanchez2011

Качество: DVB
Формат: MPEG-TS
Видео кодек: AVC
Аудио кодек: MP2
Видео: MPEG4 Video (H264) 720x576 (4:3) 25.00fps 2627kbps
Аудио: MPEG Audio Layer 2 48000Hz stereo 192kbps
GeneralID : 1 (0x1)Complete name : E:\Олимпиада 2014\Дневник Олимпиады\Дневник Олимпиады. Выпуск №28.tsFormat : MPEG-TSFile size : 526 MiBDuration : 24mn 46sOverall bit rate mode : VariableOverall bit rate : 2 967 Kbps

VideoID : 1021 (0x3FD)Menu ID : 1 (0x1)Format : AVCFormat/Info : Advanced Video CodecFormat profile : Main@L3.0Format settings, CABAC : YesFormat settings, ReFrames : 3 framesFormat settings, GOP : M=4, N=28Codec ID : 27Duration : 24mn 46sBit rate : 2 627 KbpsWidth : 720 pixelsHeight : 576 pixelsDisplay aspect ratio : 4:3Frame rate : 25.000 fpsStandard : ComponentColor space : YUVChroma subsampling : 4:2:0Bit depth : 8 bitsScan type : InterlacedScan order : Top Field FirstBits/(Pixel*Frame) : 0.253Stream size : 465 MiB (89%)Color primaries : BT.601 PALTransfer characteristics : BT.470 System B, BT.470 System GMatrix coefficients : BT.601

AudioID : 1022 (0x3FE)Menu ID : 1 (0x1)Format : MPEG AudioFormat version : Version 1Format profile : Layer 2Codec ID : 3Duration : 24mn 46sBit rate mode : ConstantBit rate : 192 KbpsChannel(s) : 2 channelsSampling rate : 48.0 KHzCompression mode : LossyStream size : 34.0 MiB (6%)Language : English

TextID : 1024 (0x400)-100Menu ID : 1 (0x1)Format : TeletextLanguage : Russian

MenuID : 256 (0x100)Menu ID : 1 (0x1)Duration : 24mn 46sList : 1021 (0x3FD) (AVC) / 1022 (0x3FE) (MPEG Audio, English) / 1024 (0x400) ()Language : / English


Трекер:  [ 23-Фев-2014 01:55 ]

  

Скачать .torrent

Размер .torrent файла 10 KB


Размер: 526 MB
Хэш (hash) релиза: ad8171a8ceaa25f6012aff34856e19f6aa1512ac
Подписка на обновления:

Еще никто не оставлял запись к записи скачать торрент XXII Зимние Олимпийские Игры 2014 Дневник Олимпиады . Будь первым!

!Обратная связь