Скачать через торрент Олимпийские Вершины. Фигурное катание Первый Канал HD Фильм бесплатно в хорошем качестве torrent

Скачивайте на UnionPeer.org фильмы через торрент без регистрации. Новинки кино в хорошем качестве через торрент. На UnionPeer.org можно скачать через торрент фильмы 2014 и 2015 годов. Самые новые фильмы.

Скачать торрент Олимпийские Вершины. Фигурное катание Первый Канал HD бесплатно через .torrent фильм мультфильм сериал

Если у вас наблюдаются проблемы со скриншотами, переходом по ссылками, скачиванием торрентов - проблемы в блокировщике рекламы AdBlock. #хорошегоДня!


Статистика раздачи
Размер:  450 MB   |    Зарегистрирован:  3 года 7 месяцев   |    .torrent скачан:  45 раз   |   
Раздают:  1  
   
Загрузка...
 
Автор Сообщение

Galfimbul

avatar Galfimbul


Олимпийские Вершины. Фигурное катание

Вид спорта: Фигурное катание
Комментарий: Профессиональный
Язык комментариев: Русский
Продолжительность: 00:49:58

Описание: Фигурное катание. Изящество, красота, грация. За этой стремительной лёгкостью - годы упорных тренировок. История российского фигурного катания — это золотая история побед.

Чемпионы. Они никогда не останавливаются на достигнутом. Каждый шаг к олимпийскому пьедесталу - это шаг за пределы возможного. Они выходят на лeд с одной целью. Чтобы победить.

Ведущая цикла "Олимпийские вершины", олимпийская чемпионка Татьяна Навка побывала на соревнованиях в Сочи. И расскажет о том, что чувствуют спортсмены, выходя на олимпийский лед. Какой ценой достается победа.

В фильме - истории преодолений и побед чемпионов Олимпиады в Сочи – Юлии Липницкой, Татьяны Волосожар и Максима Транькова, олимпийских чемпионов по фигурному катанию Татьяны Навки и Романа Костомарова, Елены Бережной и Антона Сихарулидзе, Ирины Родниной и Александра Зайцева, Натальи Бестемьяновой и Андрея Букина, Людмилы Белоусовой и Олега Протопопова.

Зрители увидят самые яркие фрагменты выступлений наших фигуристов, которые принесли им золотые олимпийские медали. И уникальные фрагменты тренировок наших спортсменов. Мы узнаем и о том, чем занимаются сейчас наши олимпийские чемпионы.

В фильме участвуют: Елена Бережная, Ирина Роднина,Наталья Бестемьянова, Андрей Букин, Татьяна Волосожар, Максим Траньков, Татьяна Тарасова, Александр Жулин, Роман Костомаров, Илья Авербух, Тамара Москвина.

Автор рипа: sanchez2011

Качество: HDTVRip
Формат: MKV
Видео кодек: AVC
Аудио кодек: MP3
Видео: MPEG4 Video (H264) 704x400 (16:9) ~1100kbps 25fps
Аудио: MPEG Audio Layer 3 48000Hz stereo 128kbps
GeneralUnique ID : 4506883711682940170797567487131977492 (0x363FE85D517284CB484147800CF0714)Complete name : E:\Олимпиада 2014\Олимпийские Вершины. Фигурное Катание.mkvFormat : MatroskaFormat version : Version 2File size : 450 MiBDuration : 49mn 58sOverall bit rate : 1 259 KbpsWriting application : XviD4PSP 6.0 / 53.6.0Writing library : XviD4PSP 6.0 / 53.6.0

VideoID : 1Format : AVCFormat/Info : Advanced Video CodecFormat profile : High@L4.1Format settings, CABAC : YesFormat settings, ReFrames : 3 framesCodec ID : V_MPEG4/ISO/AVCDuration : 49mn 58sBit rate : 1 106 KbpsWidth : 704 pixelsHeight : 400 pixelsDisplay aspect ratio : 16:9Frame rate mode : ConstantFrame rate : 25.000 fpsColor space : YUVChroma subsampling : 4:2:0Bit depth : 8 bitsScan type : ProgressiveBits/(Pixel*Frame) : 0.157Stream size : 395 MiB (88%)Writing library : x264 core 116 r2019M 9cc407dEncoding settings : cabac=1 / ref=3 / deblock=1:0:0 / analyse=0x3:0x133 / me=hex / subme=7 / psy=1 / psy_rd=1.00:0.20 / mixed_ref=1 / me_range=16 / chroma_me=1 / trellis=1 / 8x8dct=1 / cqm=0 / deadzone=21,11 / fast_pskip=1 / chroma_qp_offset=-3 / threads=8 / sliced_threads=0 / nr=0 / decimate=1 / interlaced=0 / bluray_compat=0 / constrained_intra=0 / bframes=3 / b_pyramid=1 / b_adapt=2 / b_bias=0 / direct=3 / weightb=1 / open_gop=0 / weightp=2 / keyint=250 / keyint_min=25 / scenecut=40 / intra_refresh=0 / rc_lookahead=40 / rc=crf / mbtree=1 / crf=21.0 / qcomp=0.60 / qpmin=10 / qpmax=51 / qpstep=4 / ip_ratio=1.40 / aq=1:1.00Default : YesForced : No

AudioID : 2Format : MPEG AudioFormat version : Version 1Format profile : Layer 3Mode : Joint stereoMode extension : MS StereoCodec ID : A_MPEG/L3Codec ID/Hint : MP3Duration : 49mn 58sBit rate mode : ConstantBit rate : 128 KbpsChannel(s) : 2 channelsSampling rate : 48.0 KHzCompression mode : LossyStream size : 45.8 MiB (10%)Writing library : LAME3.98ѓFvZvY%L–0c@Language : RussianDefault : YesForced : No


Трекер:  [ 22-Фев-2014 21:56 ]

  

Скачать .torrent

Размер .torrent файла 18 KB


Размер: 450 MB
Хэш (hash) релиза: d0b2072172d4b75c1de6c8b6fb8c2a793f14d2e3
Подписка на обновления:

Торренты, похожие на Олимпийские Вершины. Фигурное катание Первый Канал HD скачать торрент

Форум Название Автор Размер S L Добавлен
Зимние Олимпийские игры в Сочи 2014 ·· Олимпийские Вершины. Фигурное катание / Первый Канал HD [22.02.2014 г., Фигурное катание, Документальный, HDTV, 1080i] Galfimbul 38800541683.61 GB 0 0 1393095374

21:56

22-Фев-14

Еще никто не оставлял запись к записи скачать торрент Олимпийские Вершины. Фигурное катание Первый Канал HD . Будь первым!

!Обратная связь