Скачать через торрент XXII Зимние Олимпийские Игры 2014. Сноуборд. Параллельный слалом. Мужчины, женщины. Финалы Россия HD Фильм бесплатно в хорошем качестве torrent

Скачивайте на UnionPeer.org фильмы через торрент без регистрации. Новинки кино в хорошем качестве через торрент. На UnionPeer.org можно скачать через торрент фильмы 2014 и 2015 годов. Самые новые фильмы.

Скачать торрент XXII Зимние Олимпийские Игры 2014. Сноуборд. Параллельный слалом. Мужчины, женщины. Финалы Россия HD бесплатно через .torrent фильм мультфильм сериал

Если у вас наблюдаются проблемы со скриншотами, переходом по ссылками, скачиванием торрентов - проблемы в блокировщике рекламы AdBlock. #хорошегоДня!


Статистика раздачи
Размер:  1.81 GB   |    Зарегистрирован:  3 года 7 месяцев   |    .torrent скачан:  42 раза   |   
Раздают:  1  
   
Загрузка...
 
Автор Сообщение

Galfimbul

avatar Galfimbul


XXII Зимние Олимпийские Игры 2014. Сноуборд. Параллельный слалом. Мужчины, женщины. Финалы

Вид спорта: Сноуборд
Комментарий: Профессиональный
Язык комментариев: Русский (Владимир Стогниенко)
Описание: XXII Зимние Олимпийские Игры 2014. Сноуборд. Параллельный слалом. Мужчины, женщины. Финалы.

Присутствует цветочная церемония и некоторые квалификационные заезды перед финалами.

Из записи выпала вторая попытка второго полуфинала у женщин по техническим причинам.

Автор рипа: sanchez2011

Качество: HDTVRip
Формат: AVI
Видео кодек: XviD
Аудио кодек: MP3
Видео: MPEG4 Visual (H263) 704x400 (16:9) 1500kbps 25fps
Аудио: MPEG Audio Layer 3 48000Hz stereo 128kbps
Все результаты соревнований

Продолжительность: 02:37:53
GeneralComplete name : E:\Олимпиада 2014\XXII Зимние Олимпийские Игры 2014. 22.02.2014 Сноуборд. Параллельный слалом. Мужчины, женщины. Финалы.aviFormat : AVIFormat/Info : Audio Video InterleaveFile size : 1.81 GiBDuration : 2h 37mnOverall bit rate : 1 637 KbpsWriting application : VirtualDubMod 1.5.10.2 (build 2540/release)Writing library : VirtualDubMod build 2540/release

VideoID : 0Format : MPEG-4 VisualFormat profile : Advanced Simple@L5Format settings, BVOP : 2Format settings, QPel : NoFormat settings, GMC : No warppointsFormat settings, Matrix : Default (H.263)Codec ID : XVIDCodec ID/Hint : XviDDuration : 2h 37mnBit rate : 1 500 KbpsWidth : 704 pixelsHeight : 400 pixelsDisplay aspect ratio : 16:9Frame rate : 25.000 fpsColor space : YUVChroma subsampling : 4:2:0Bit depth : 8 bitsScan type : ProgressiveCompression mode : LossyBits/(Pixel*Frame) : 0.213Stream size : 1.65 GiB (92%)Writing library : XviD 64

AudioID : 1Format : MPEG AudioFormat version : Version 1Format profile : Layer 3Mode : Joint stereoCodec ID : 55Codec ID/Hint : MP3Duration : 2h 37mnBit rate mode : ConstantBit rate : 128 KbpsChannel(s) : 2 channelsSampling rate : 48.0 KHzCompression mode : LossyStream size : 145 MiB (8%)Alignment : Aligned on interleavesInterleave, duration : 40 ms (1.00 video frame)Interleave, preload duration : 504 msWriting library : LAME3.100


Трекер:  [ 22-Фев-2014 19:33 ]

  

Скачать .torrent

Размер .torrent файла 18 KB


Размер: 1.81 GB
Хэш (hash) релиза: 4b909cc0c7ceee290cf58bb54292b50b26fd077f
Подписка на обновления:

Торренты, похожие на XXII Зимние Олимпийские Игры 2014. Сноуборд. Параллельный слалом. Мужчины, женщины. Финалы Россия HD скачать торрент

Форум Название Автор Размер S L Добавлен
Зимние Олимпийские игры в Сочи 2014 ·· XXII Зимние Олимпийские Игры 2014. Сноуборд. Параллельный слалом. Мужчины, женщины. Финалы / Россия HD [22.01.2014, Сноуборд, HDTV, 1080i] Galfimbul 1174714954410.94 GB 0 0 1393072248

15:30

22-Фев-14

Еще никто не оставлял запись к записи скачать торрент XXII Зимние Олимпийские Игры 2014. Сноуборд. Параллельный слалом. Мужчины, женщины. Финалы Россия HD . Будь первым!

!Обратная связь