Скачать через торрент XXII Зимние Олимпийские Игры 2014. Сноуборд. Параллельный слалом. Мужчины, женщины. Финалы Россия HD Фильм бесплатно в хорошем качестве torrent

Скачивайте на UnionPeer.org фильмы через торрент без регистрации. Новинки кино в хорошем качестве через торрент. На UnionPeer.org можно скачать через торрент фильмы 2014 и 2015 годов. Самые новые фильмы.

Скачать торрент XXII Зимние Олимпийские Игры 2014. Сноуборд. Параллельный слалом. Мужчины, женщины. Финалы Россия HD бесплатно через .torrent фильм мультфильм сериал

Если у вас наблюдаются проблемы со скриншотами, переходом по ссылками, скачиванием торрентов - проблемы в блокировщике рекламы AdBlock. #хорошегоДня!


Статистика раздачи
Размер:  10.94 GB   |    Зарегистрирован:  3 года 7 месяцев   |    .torrent скачан:  39 раз   |   
Раздают:  1  
   
Загрузка...
 
Автор Сообщение

Galfimbul

avatar Galfimbul


XXII Зимние Олимпийские Игры 2014. Сноуборд. Параллельный слалом. Мужчины, женщины. Финалы

Вид спорта: Сноуборд
Комментарий: Профессиональный
Язык комментариев: Русский (Владимир Стогниенко)
Описание: XXII Зимние Олимпийские Игры 2014. Сноуборд. Параллельный слалом. Мужчины, женщины. Финалы.

Присутствует цветочная церемония и некоторые квалификационные заезды перед финалами.

Из записи выпала вторая попытка второго полуфинала у женщин по техническим причинам.

Автор рипа: sanchez2011

Качество: HDTV
Формат: MPEG-TS
Видео кодек: AVC
Аудио кодек: MP2
Видео: MPEG4 Video (H264) 1920x1080 9200kbps 25fps
Аудио: MPEG Audio 48000Hz stereo 224kbps
Все результаты соревнований

Продолжительность: 02:37:53
GeneralID : 1 (0x1)Complete name : E:\Олимпиада 2014\XXII Зимние Олимпийские Игры 2014. 22.02.2014 Сноуборд. Параллельный слалом. Мужчины, женщины. Финалы.tsFormat : MPEG-TSFile size : 10.9 GiBDuration : 2h 37mnOverall bit rate mode : VariableOverall bit rate : 9 920 Kbps

VideoID : 1901 (0x76D)Menu ID : 1 (0x1)Format : AVCFormat/Info : Advanced Video CodecFormat profile : High@L4.0Format settings, CABAC : YesFormat settings, ReFrames : 3 framesCodec ID : 27Duration : 2h 37mnBit rate : 9 203 KbpsWidth : 1 920 pixelsHeight : 1 080 pixelsDisplay aspect ratio : 16:9Frame rate : 25.000 fpsStandard : ComponentColor space : YUVChroma subsampling : 4:2:0Bit depth : 8 bitsScan type : InterlacedScan order : Top Field FirstBits/(Pixel*Frame) : 0.178Stream size : 10.2 GiB (93%)Color primaries : BT.709Transfer characteristics : BT.709Matrix coefficients : BT.709

AudioID : 2901 (0xB55)Menu ID : 1 (0x1)Format : MPEG AudioFormat version : Version 1Format profile : Layer 2Codec ID : 3Duration : 2h 37mnBit rate mode : ConstantBit rate : 224 KbpsChannel(s) : 2 channelsSampling rate : 48.0 KHzCompression mode : LossyStream size : 253 MiB (2%)Language : Russian


Трекер:  [ 22-Фев-2014 15:30 ]

  

Скачать .torrent

Размер .torrent файла 55 KB


Размер: 10.94 GB
Хэш (hash) релиза: d019364fa3403d973ff385799fafded3972d068d
Подписка на обновления:

Торренты, похожие на XXII Зимние Олимпийские Игры 2014. Сноуборд. Параллельный слалом. Мужчины, женщины. Финалы Россия HD скачать торрент

Форум Название Автор Размер S L Добавлен
Зимние Олимпийские игры в Сочи 2014 ·· XXII Зимние Олимпийские Игры 2014. Сноуборд. Параллельный слалом. Мужчины, женщины. Финалы / Россия HD [22.02.2014, Сноуборд, HDTVRip, AVI, XviD] Galfimbul 19388989441.81 GB 0 0 1393086832

19:33

22-Фев-14

Еще никто не оставлял запись к записи скачать торрент XXII Зимние Олимпийские Игры 2014. Сноуборд. Параллельный слалом. Мужчины, женщины. Финалы Россия HD . Будь первым!

!Обратная связь