Скачать через торрент XXII Зимние Олимпийские Игры 2014. Лыжные гонки. Женщины. Масс-старт 30 км Первый Канал HD Фильм бесплатно в хорошем качестве torrent

Скачивайте на UnionPeer.org фильмы через торрент без регистрации. Новинки кино в хорошем качестве через торрент. На UnionPeer.org можно скачать через торрент фильмы 2014 и 2015 годов. Самые новые фильмы.

Скачать торрент XXII Зимние Олимпийские Игры 2014. Лыжные гонки. Женщины. Масс-старт 30 км Первый Канал HD бесплатно через .torrent фильм мультфильм сериал

Если у вас наблюдаются проблемы со скриншотами, переходом по ссылками, скачиванием торрентов - проблемы в блокировщике рекламы AdBlock. #хорошегоДня!


Статистика раздачи
Размер:  7.59 GB   |    Зарегистрирован:  3 года 9 месяцев   |    .torrent скачан:  40 раз   |   
Раздают:  1  
   
Загрузка...
 
Автор Сообщение

Galfimbul

avatar Galfimbul


XXII Зимние Олимпийские Игры 2014. Лыжные гонки. Женщины. Масс-старт 30 км

Вид спорта: Лыжные гонки
Комментарий: Профессиональный
Язык комментариев: Русский (Сергей Курдюков)
Описание: XXII Зимние Олимпийские Игры 2014. Лыжные гонки. Женщины. Масс-старт 30 км.

Автор рипа: sanchez2011

Качество: HDTV
Формат: MPEG-TS
Видео кодек: AVC
Аудио кодек: MP2
Видео: MPEG4 Video (H264) 1920x1080 14.7Mbps 25fps
Аудио: MPEG Audio 48000Hz stereo 192kbps
Все результаты соревнований

Продолжительность: 01:09:15
GeneralID : 1 (0x1)Complete name : E:\Олимпиада 2014\XXII Зимние Олимпийские Игры 2014. 22.02.2014 Лыжные гонки. Женщины. Масс-старт 30 км .tsFormat : MPEG-TSFile size : 7.59 GiBDuration : 1h 9mnOverall bit rate mode : VariableOverall bit rate : 15.7 Mbps

VideoID : 2141 (0x85D)Menu ID : 1 (0x1)Format : AVCFormat/Info : Advanced Video CodecFormat profile : Main@L4.0Format settings, CABAC : YesFormat settings, ReFrames : 3 framesCodec ID : 27Duration : 1h 9mnBit rate : 14.7 MbpsWidth : 1 920 pixelsHeight : 1 080 pixelsDisplay aspect ratio : 16:9Frame rate : 25.000 fpsStandard : ComponentColor space : YUVChroma subsampling : 4:2:0Bit depth : 8 bitsScan type : InterlacedScan order : Top Field FirstBits/(Pixel*Frame) : 0.284Stream size : 7.13 GiB (94%)Color primaries : BT.709Transfer characteristics : BT.709Matrix coefficients : BT.709

AudioID : 2142 (0x85E)Menu ID : 1 (0x1)Format : MPEG AudioFormat version : Version 1Format profile : Layer 2Codec ID : 3Duration : 1h 9mnBit rate mode : ConstantBit rate : 192 KbpsChannel(s) : 2 channelsSampling rate : 48.0 KHzCompression mode : LossyStream size : 95.1 MiB (1%)Language : Russian


Трекер:  [ 22-Фев-2014 15:30 ]

  

Скачать .torrent

Размер .torrent файла 38 KB


Размер: 7.59 GB
Хэш (hash) релиза: f5a5d3028a28cfca47cab5526c2493d3fd4a6ee1
Подписка на обновления:

Еще никто не оставлял запись к записи скачать торрент XXII Зимние Олимпийские Игры 2014. Лыжные гонки. Женщины. Масс-старт 30 км Первый Канал HD . Будь первым!

!Обратная связь