Скачать через торрент XXII Зимние Олимпийские Игры 2014. Биатлон. Женщины. Эстафета 4x6 км. Спорт 1 HD Фильм бесплатно в хорошем качестве torrent

Скачивайте на UnionPeer.org фильмы через торрент без регистрации. Новинки кино в хорошем качестве через торрент. На UnionPeer.org можно скачать через торрент фильмы 2014 и 2015 годов. Самые новые фильмы.

Скачать торрент XXII Зимние Олимпийские Игры 2014. Биатлон. Женщины. Эстафета 4x6 км. Спорт 1 HD бесплатно через .torrent фильм мультфильм сериал

Если у вас наблюдаются проблемы со скриншотами, переходом по ссылками, скачиванием торрентов - проблемы в блокировщике рекламы AdBlock. #хорошегоДня!


Статистика раздачи
Размер:  7.45 GB   |    Зарегистрирован:  3 года 7 месяцев   |    .torrent скачан:  42 раза   |   
Раздают:  1  
   
Загрузка...
 
Автор Сообщение

Galfimbul

avatar Galfimbul


XXII Зимние Олимпийские Игры 2014. Биатлон. Женщины. Эстафета 4x6 км

Вид спорта: Биатлон
Дата/Год выпуска: 21.02.14
Язык комментариев: русский

Автор записи: SashaR.

Качество: DVB-S2 Remux
Формат видео: TS
Видео: AVC, 1920x1080, 16:9, 11.2 Mbps, 25 fps
Аудио: MP2, 192 kbps, 48 kHz, 2 channels
F:\Олимпиада\Биатлон. Женщины. Эстафета 4x6 км (Спорт 1 HD).ts
General #6
ID : 6 (0x6)
Complete name : F:\Олимпиада\Биатлон. Женщины. Эстафета 4x6 км (Спорт 1 HD).ts
Format : MPEG-TS
File size : 7.45 GiB
Duration : 1h 28mn
Overall bit rate mode : Variable
Overall bit rate : 12.0 Mbps
Video #303
ID : 303 (0x12F)
Menu ID : 20103 (0x4E87)
Format : AVC
Format/Info : Advanced Video Codec
Format profile : High@L4.0
Format settings, CABAC : Yes
Format settings, ReFrames : 3 frames
Codec ID : 27
Duration : 1h 28mn
Bit rate : 11.2 Mbps
Width : 1 920 pixels
Height : 1 080 pixels
Display aspect ratio : 16:9
Frame rate : 25.000 fps
Standard : Component
Color space : YUV
Chroma subsampling : 4:2:0
Bit depth : 8 bits
Scan type : Interlaced
Scan order : Top Field First
Bits/(Pixel*Frame) : 0.216
Stream size : 6.96 GiB (93%)
Color primaries : BT.709
Transfer characteristics : BT.709
Matrix coefficients : BT.709
Audio #403
ID : 403 (0x193)
Menu ID : 20103 (0x4E87)
Format : MPEG Audio
Format version : Version 1
Format profile : Layer 2
Codec ID : 4
Duration : 1h 28mn
Bit rate mode : Constant
Bit rate : 192 Kbps
Channel count : 2 channels
Sampling rate : 48.0 KHz
Compression mode : Lossy
Delay relative to video : 88ms
Stream size : 122 MiB (2%)
Language : Russian
01:28:49


Трекер:  [ 22-Фев-2014 01:22 ]

  

Скачать .torrent

Размер .torrent файла 149 KB


Размер: 7.45 GB
Хэш (hash) релиза: 90d704520f80ee4a921e88c03eb81681fc2c486e
Подписка на обновления:

Торренты, похожие на XXII Зимние Олимпийские Игры 2014. Биатлон. Женщины. Эстафета 4x6 км. Спорт 1 HD скачать торрент

Форум Название Автор Размер S L Добавлен
Зимние Олимпийские игры в Сочи 2014 ·· XXII Зимние Олимпийские Игры 2014 / Биатлон / Женщины / Эстафета 4x6 км / Спорт 1 HD [21.02.2014, Биатлон, HDTVRip/720p, MKV, RU] Galfimbul 20108248671.87 GB 0 0 1393055230

10:47

22-Фев-14

Зимние Олимпийские игры в Сочи 2014 ·· XXII Зимние Олимпийские Игры 2014 / Биатлон / Женщины / Эстафета 4x6 км / + Цветочная церемония. Спорт 1 HD [21.02.2014, HDTV 1080р, H.264, RU, IPTV] Galfimbul 33399071853.11 GB 0 0 1393007677

21:34

21-Фев-14

Еще никто не оставлял запись к записи скачать торрент XXII Зимние Олимпийские Игры 2014. Биатлон. Женщины. Эстафета 4x6 км. Спорт 1 HD . Будь первым!

!Обратная связь