Скачать через торрент XXII Зимние Олимпийские Игры 2014. Шорт-трек. Мужчины 500 м. Женщины 1000 м. Эстафета у мужчин 5000 м Россия HD Фильм бесплатно в хорошем качестве torrent

Скачивайте на UnionPeer.org фильмы через торрент без регистрации. Новинки кино в хорошем качестве через торрент. На UnionPeer.org можно скачать через торрент фильмы 2014 и 2015 годов. Самые новые фильмы.

Скачать торрент XXII Зимние Олимпийские Игры 2014. Шорт-трек. Мужчины 500 м. Женщины 1000 м. Эстафета у мужчин 5000 м Россия HD бесплатно через .torrent фильм мультфильм сериал

Если у вас наблюдаются проблемы со скриншотами, переходом по ссылками, скачиванием торрентов - проблемы в блокировщике рекламы AdBlock. #хорошегоДня!


Статистика раздачи
Размер:  10.84 GB   |    Зарегистрирован:  3 года 7 месяцев   |    .torrent скачан:  33 раза   |   
Раздают:  1  
   
Загрузка...
 
Автор Сообщение

Galfimbul

avatar Galfimbul


XXII Зимние Олимпийские Игры 2014. Шорт-трек. Мужчины 500 м. Женщины 1000 м. Эстафета у мужчин 5000 м

Вид спорта: Конькобежный спорт
Комментарий: Профессиональный
Язык комментариев: Русский (Богословская с кем-то)
Описание: XXII Зимние Олимпийские Игры 2014. Шорт-трек. Мужские четвертьфинальные, полуфинальные и финальные старты на 500 м. Женские четвертьфинальные, полуфинальные и финальные старты на 1000 м. Финалы в мужской эстафете на 5000 м.

Присутствует цветочная церемония!

Запись со старта первого забега - первого четвертьфинала у мужчин на дистанции 500 метров. Без прелюдий. Поздно включил канал, вобщем-то как обычно

Автор рипа: sanchez2011

Качество: HDTV
Формат: MPEG-TS
Видео кодек: AVC
Аудио кодек: MP2
Видео: MPEG4 Video (H264) 1920x1080 10Mbps 25fps
Аудио: MPEG Audio 48000Hz stereo 224kbps
Все результаты соревнований

Продолжительность: 02:27:35
GeneralID : 1 (0x1)Complete name : E:\Олимпиада 2014\XXII Зимние Олимпийские Игры 2014. 21.02.2014 Шорт-трек. Мужчины 500 м. Женщины 1000 м. Эстафета у мужчин 5000 м.tsFormat : MPEG-TSFile size : 10.8 GiBDuration : 2h 27mnOverall bit rate mode : VariableOverall bit rate : 10.5 Mbps

VideoID : 1901 (0x76D)Menu ID : 1 (0x1)Format : AVCFormat/Info : Advanced Video CodecFormat profile : High@L4.0Format settings, CABAC : YesFormat settings, ReFrames : 3 framesCodec ID : 27Duration : 2h 27mnBit rate : 9 772 KbpsWidth : 1 920 pixelsHeight : 1 080 pixelsDisplay aspect ratio : 16:9Frame rate : 25.000 fpsStandard : ComponentColor space : YUVChroma subsampling : 4:2:0Bit depth : 8 bitsScan type : InterlacedScan order : Top Field FirstBits/(Pixel*Frame) : 0.188Stream size : 10.1 GiB (93%)Color primaries : BT.709Transfer characteristics : BT.709Matrix coefficients : BT.709

AudioID : 2901 (0xB55)Menu ID : 1 (0x1)Format : MPEG AudioFormat version : Version 1Format profile : Layer 2Codec ID : 3Duration : 2h 27mnBit rate mode : ConstantBit rate : 224 KbpsChannel(s) : 2 channelsSampling rate : 48.0 KHzCompression mode : LossyStream size : 236 MiB (2%)Language : Russian


Трекер:  [ 21-Фев-2014 23:14 ]

  

Скачать .torrent

Размер .torrent файла 55 KB


Размер: 10.84 GB
Хэш (hash) релиза: 65aa9f1800ca49efb78c94e27fb331d42b09d03d
Подписка на обновления:

Еще никто не оставлял запись к записи скачать торрент XXII Зимние Олимпийские Игры 2014. Шорт-трек. Мужчины 500 м. Женщины 1000 м. Эстафета у мужчин 5000 м Россия HD . Будь первым!

!Обратная связь