Скачать через торрент XXII Зимние Олимпийские Игры 2014. Биатлон. Женщины. Эстафета 4x6 км Первый Канал HD Фильм бесплатно в хорошем качестве torrent

Скачивайте на UnionPeer.org фильмы через торрент без регистрации. Новинки кино в хорошем качестве через торрент. На UnionPeer.org можно скачать через торрент фильмы 2014 и 2015 годов. Самые новые фильмы.

Скачать торрент XXII Зимние Олимпийские Игры 2014. Биатлон. Женщины. Эстафета 4x6 км Первый Канал HD бесплатно через .torrent фильм мультфильм сериал

Если у вас наблюдаются проблемы со скриншотами, переходом по ссылками, скачиванием торрентов - проблемы в блокировщике рекламы AdBlock. #хорошегоДня!


Статистика раздачи
Размер:  9.64 GB   |    Зарегистрирован:  3 года 8 месяцев   |    .torrent скачан:  35 раз   |   
Раздают:  1  
   
Загрузка...
 
Автор Сообщение

Galfimbul

avatar Galfimbul


XXII Зимние Олимпийские Игры 2014. Биатлон. Женщины. Эстафета 4x6 км

Вид спорта: Биатлон
Комментарий: Профессиональный
Язык комментариев: Русский (Дмитрий Терехов и Николай Круглов)
Описание: XXII Зимние Олимпийские Игры 2014. Биатлон. Женщины. Эстафета 4x6 км. Присутствует цветочная церемония.

Есть трехсекундное рассыпание перед первой сменой этапа. Думаю, 3 секунды за 1,5 часа не проблема?

Автор рипа: sanchez2011

Качество: HDTV
Формат: MPEG-TS
Видео кодек: AVC
Аудио кодек: MP2
Видео: MPEG4 Video (H264) 1920x1080 14.5Mbps 25fps
Аудио: MPEG Audio 48000Hz stereo 192kbps
Все результаты соревнований

Продолжительность: 01:29:03
GeneralID : 1 (0x1)Complete name : E:\Олимпиада 2014\XXII Зимние Олимпийские Игры 2014. 21.02.2014 Биатлон. Женщины. Эстафета 4x6 км.tsFormat : MPEG-TSFile size : 9.64 GiBDuration : 1h 29mnOverall bit rate mode : VariableOverall bit rate : 15.5 Mbps

VideoID : 4113 (0x1011)Menu ID : 1 (0x1)Format : AVCFormat/Info : Advanced Video CodecFormat profile : Main@L4.0Format settings, CABAC : YesFormat settings, ReFrames : 3 framesCodec ID : 27Duration : 1h 29mnBit rate mode : VariableBit rate : 14.5 MbpsMaximum bit rate : 40.0 MbpsWidth : 1 920 pixelsHeight : 1 080 pixelsDisplay aspect ratio : 16:9Frame rate : 25.000 fpsStandard : ComponentColor space : YUVChroma subsampling : 4:2:0Bit depth : 8 bitsScan type : InterlacedScan order : Top Field FirstBits/(Pixel*Frame) : 0.280Stream size : 9.04 GiB (94%)Color primaries : BT.709Transfer characteristics : BT.709Matrix coefficients : BT.709

AudioID : 4352 (0x1100)Menu ID : 1 (0x1)Format : MPEG AudioFormat version : Version 1Format profile : Layer 2Codec ID : 3Duration : 1h 29mnBit rate mode : ConstantBit rate : 192 KbpsChannel(s) : 2 channelsSampling rate : 48.0 KHzCompression mode : LossyStream size : 122 MiB (1%)Language : Russian


Трекер:  [ 21-Фев-2014 21:34 ]

  

Скачать .torrent

Размер .torrent файла 48 KB


Размер: 9.64 GB
Хэш (hash) релиза: da3b54de1d01d795fd123b0083a92115aa8631d7
Подписка на обновления:

Торренты, похожие на XXII Зимние Олимпийские Игры 2014. Биатлон. Женщины. Эстафета 4x6 км Первый Канал HD скачать торрент

Форум Название Автор Размер S L Добавлен
Зимние Олимпийские игры в Сочи 2014 ·· XXII Зимние Олимпийские Игры 2014. Биатлон. Женщины. Эстафета 4x6 км / Первый Канал HD [21.02.2014 г., Биатлон, HDTVRip, XviD, 400p] Galfimbul 10929213441.02 GB 0 0 1393007667

21:34

21-Фев-14

Еще никто не оставлял запись к записи скачать торрент XXII Зимние Олимпийские Игры 2014. Биатлон. Женщины. Эстафета 4x6 км Первый Канал HD . Будь первым!

!Обратная связь