Скачать порно через торрент Takarasagashi no Natsuyasumi UnionPeer.org бесплатно онлайн HD качество

Скачать новое порно 2015, 2014 новинки через торрент UnionPeer.org

Порно торрент бесплатно ЮнионПир.орг

Если у вас наблюдаются проблемы со скриншотами, переходом по ссылками, скачиванием торрентов - проблемы в блокировщике рекламы AdBlock. #хорошегоДня!


Статистика раздачи
Размер:  2.16 GB   |    Зарегистрирован:  3 года 8 месяцев   |    .torrent скачан:  246 раз   |   
Раздают:  1  
   
Загрузка...
 
Автор Сообщение

Galfimbul

avatar Galfimbul


Takarasagashi no Natsuyasumi / たからさがしのなつやすみ

Год производства: 2014 г.
Жанр: straight, blowjob, big tits
Серии: ep. 1
Продолжительность: 00:49:02
Цензура: Есть во всех файлах

Язык: Японский
Озвучка: Оригинальная
Студия: sandwichworks

Описание: Парень встречает девушку на деревенской остановке. Ну и понеслась)

Качество видео: GameRip
Разрешение видео: 720p
Формат видео: WMV
Видео: WVC1 1280x720 24fps 5938kbps [Raw Video 1]
Аудио: WMA 2 48000Hz stereo 353kbps [Raw Audio 0]
Format : Windows Media
File size : 2.16 GiB
Duration : 49mn 1s
Overall bit rate mode : Variable
Overall bit rate : 6 311 Kbps
Maximum Overall bit rate : 28.6 Mbps
Encoded date : UTC 2014-02-01 00:00:04.683

Video
ID : 2
Format : VC-1
Format profile : Advanced@L4
Codec ID : WVC1
Codec ID/Hint : Microsoft
Description of the codec : Windows Media Video 9 Advanced Profile
Duration : 49mn 1s
Bit rate mode : Variable
Bit rate : 5 938 Kbps
Width : 1 280 pixels
Height : 720 pixels
Display aspect ratio : 16:9
Frame rate : 24.000 fps
Chroma subsampling : 4:2:0
Bit depth : 8 bits
Scan type : Progressive
Compression mode : Lossy
Bits/(Pixel*Frame) : 0.268
Stream size : 2.03 GiB (94%)
NumberOfFrames : 70590

Audio
ID : 1
Format : WMA
Format version : Version 2
Codec ID : 161
Codec ID/Info : Windows Media Audio
Description of the codec : Windows Media Audio 9.2 - VBR Quality 98, 48 kHz, stereo 1-pass VBR
Duration : 49mn 1s
Bit rate mode : Variable
Bit rate : 354 Kbps
Channel(s) : 2 channels
Sampling rate : 48.0 KHz
Bit depth : 16 bits
Stream size : 124 MiB (6%)
NumberOfFrames : 11878


Трекер:  [ 20-Фев-2014 21:56 ]

  

Скачать .torrent

Размер .torrent файла 11 KB


Размер: 2.16 GB
Хэш (hash) релиза: d5253a373b7799498f616c8bca6824737732540b

Еще никто не оставлял запись к записи скачать торрент Takarasagashi no Natsuyasumi . Будь первым!

!Обратная связь