Скачать через торрент Олимпийские Вершины. Биатлон Первый Канал HD Фильм бесплатно в хорошем качестве torrent

Скачивайте на UnionPeer.org фильмы через торрент без регистрации. Новинки кино в хорошем качестве через торрент. На UnionPeer.org можно скачать через торрент фильмы 2014 и 2015 годов. Самые новые фильмы.

Скачать торрент Олимпийские Вершины. Биатлон Первый Канал HD бесплатно через .torrent фильм мультфильм сериал

Если у вас наблюдаются проблемы со скриншотами, переходом по ссылками, скачиванием торрентов - проблемы в блокировщике рекламы AdBlock. #хорошегоДня!


Статистика раздачи
Размер:  5.07 GB   |    Зарегистрирован:  3 года 7 месяцев   |    .torrent скачан:  26 раз   |   
Раздают:  1  
   
Загрузка...
 
Автор Сообщение

Galfimbul

avatar Galfimbul


Олимпийские Вершины. Биатлон

Вид спорта: Биатлон
Комментарий: Профессиональный
Язык комментариев: Русский
Продолжительность: 00:50:00

Описание: Биатлон – один из самых зрелищных видов спорта, входящих в программу зимних Олимпийских игр.

Биатлон полностью захватывает болельщиков, они словно бегут вместе со своими кумирами по трассе, затаив дыхание, стреляют по мишеням. Эмоций в этом виде спорта – хоть отбавляй. Но чтобы до конца понять мир биатлона, нужно окунуться в него.

Зрители увидят самые яркие, самые драматичные моменты предыдущих олимпийских гонок, побывают на тренировках сборной России по биатлону, узнают, как шли к своим олимпийским вершинам и чем занимаются сейчас наши прославленные олимпийские чемпионы: лучший биатлонист ХХ века Александр Тихонов, отец и сын Кругловы, Ольга Пылeва-Медведцева, Ольга Зайцева, Евгений Устюгов. У каждой их олимпийской медали – своя непростая история. Но ни один из них не жалеет о том, чем пришлось пожертвовать ради победы.

Ведущая цикла "Олимпийские вершины" Татьяна Навка расскажет, в чем специфика биатлона, почему его считают одним из самых сложных зимних видов спорта. Она сама проедет на лыжах по олимпийской трассе в Сочи, одной из самых трудных в мире, со множеством затяжных подъемов и спусков, где у спортсменов нет возможности даже немного передохнуть.

В фильме участвуют: Александр Тихонов, Николай Круглов-старший и Николай Круглов-младший, Ольга и Валерий Медведцевы, Ольга Зайцева, Дмитрий Малышко, Антон Шипулин, Уле-Эйнар Бьeрндален, Евгений Устюгов.

Автор рипа: sanchez2011

Качество: HDTV
Формат: MPEG-TS
Видео кодек: AVC
Аудио кодек: MP2
Видео: MPEG4 Video (H264) 1920x1080 13300kbps 25fps
Аудио: MPEG Audio 48000Hz stereo 192kbps
GeneralID : 1 (0x1)Complete name : E:\Олимпиада 2014\Олимпийские Вершины. Биатлон.tsFormat : MPEG-TSFile size : 5.07 GiBDuration : 49mn 58sOverall bit rate mode : VariableOverall bit rate : 14.5 Mbps

VideoID : 4113 (0x1011)Menu ID : 1 (0x1)Format : AVCFormat/Info : Advanced Video CodecFormat profile : High@L4.0Format settings, CABAC : YesFormat settings, ReFrames : 4 framesCodec ID : 27Duration : 49mn 58sBit rate mode : VariableBit rate : 13.6 MbpsMaximum bit rate : 40.0 MbpsWidth : 1 920 pixelsHeight : 1 080 pixelsDisplay aspect ratio : 16:9Frame rate : 25.000 fpsColor space : YUVChroma subsampling : 4:2:0Bit depth : 8 bitsScan type : InterlacedScan order : Top Field FirstBits/(Pixel*Frame) : 0.262Stream size : 4.75 GiB (94%)Color primaries : BT.709Transfer characteristics : BT.709Matrix coefficients : BT.709

AudioID : 4352 (0x1100)Menu ID : 1 (0x1)Format : MPEG AudioFormat version : Version 1Format profile : Layer 2Codec ID : 3Duration : 49mn 58sBit rate mode : ConstantBit rate : 192 KbpsChannel(s) : 2 channelsSampling rate : 48.0 KHzCompression mode : LossyStream size : 68.6 MiB (1%)Language : English


Трекер:  [ 20-Фев-2014 21:30 ]

  

Скачать .torrent

Размер .torrent файла 26 KB


Размер: 5.07 GB
Хэш (hash) релиза: 40ee2139f4f9014860aa4a00f3c05d63f13c11f9
Подписка на обновления:

Торренты, похожие на Олимпийские Вершины. Биатлон Первый Канал HD скачать торрент

Форум Название Автор Размер S L Добавлен
Зимние Олимпийские игры в Сочи 2014 ·· Олимпийские Вершины. Биатлон / Первый Канал HD [16.02.2014 г., Биатлон, Документальный, HDTVRip, XviD, 400p] Galfimbul 613914624585 MB 0 0 1392921047

21:30

20-Фев-14

Зимние Олимпийские игры в Сочи 2014 ·· Олимпийские Вершины. Биатлон / Первый Канал HD [16.02.2014 г., Биатлон, Документальный, HDTV, 1080i] Galfimbul 18166477601.69 GB 0 0 1392562595

17:56

16-Фев-14

Еще никто не оставлял запись к записи скачать торрент Олимпийские Вершины. Биатлон Первый Канал HD . Будь первым!

!Обратная связь