Скачать через торрент XXII Зимние Олимпийские Игры 2014. Керлинг. Женщины. Матч за 3-е место. Великобритания - Швейцария Россия 2 Фильм бесплатно в хорошем качестве torrent

Скачивайте на UnionPeer.org фильмы через торрент без регистрации. Новинки кино в хорошем качестве через торрент. На UnionPeer.org можно скачать через торрент фильмы 2014 и 2015 годов. Самые новые фильмы.

Скачать торрент XXII Зимние Олимпийские Игры 2014. Керлинг. Женщины. Матч за 3-е место. Великобритания - Швейцария Россия 2 бесплатно через .torrent фильм мультфильм сериал

Если у вас наблюдаются проблемы со скриншотами, переходом по ссылками, скачиванием торрентов - проблемы в блокировщике рекламы AdBlock. #хорошегоДня!


Статистика раздачи
Размер:  1.96 GB   |    Зарегистрирован:  3 года 8 месяцев   |    .torrent скачан:  38 раз   |   
Раздают:  1  
   
Загрузка...
 
Автор Сообщение

Galfimbul

avatar Galfimbul


XXII Зимние Олимпийские Игры 2014. Керлинг. Женщины. Матч за 3-е место. Великобритания - Швейцария

Вид спорта: Керлинг
Комментарий: Профессиональный
Язык комментариев: Русский (Роман Трушечкин)
Описание: XXII Зимние Олимпийские Игры 2014. Керлинг. Женщины. Матч за 3-е место. Великобритания - Швейцария.

Автор рипа: sanchez2011

Качество: DVB
Формат: MPEG-PS
Видео кодек: MPEG2
Аудио кодек: MP2
Видео: MPEG2 Video 720x576 (4:3) 25fps 1600kbps
Аудио: MPEG Audio 48000Hz stereo 192kbps
Все результаты соревнований

Продолжительность: 02:31:30
GeneralComplete name : E:\Олимпиада 2014\XXII Зимние Олимпийские Игры 2014. 20.02.2014 Керлинг. Женщины. Матч за 3-е место. Великобритания - Швейцария.mpgFormat : MPEG-PSFile size : 1.96 GiBDuration : 2h 31mnOverall bit rate mode : VariableOverall bit rate : 1 857 Kbps

VideoID : 224 (0xE0)Format : MPEG VideoFormat version : Version 2Format profile : Main@MainFormat settings, BVOP : YesFormat settings, Matrix : CustomFormat settings, GOP : VariableDuration : 2h 31mnBit rate mode : VariableBit rate : 1 628 KbpsMaximum bit rate : 15.0 MbpsWidth : 720 pixelsHeight : 576 pixelsDisplay aspect ratio : 4:3Frame rate : 25.000 fpsStandard : PALColor space : YUVChroma subsampling : 4:2:0Bit depth : 8 bitsScan type : InterlacedScan order : Top Field FirstCompression mode : LossyBits/(Pixel*Frame) : 0.157Time code of first frame : 00:00:00:00Time code source : Group of pictures headerStream size : 1.72 GiB (88%)Matrix coefficients : BT.601

AudioID : 192 (0xC0)Format : MPEG AudioFormat version : Version 1Format profile : Layer 2Duration : 2h 31mnBit rate mode : ConstantBit rate : 192 KbpsChannel(s) : 2 channelsSampling rate : 48.0 KHzCompression mode : LossyStream size : 208 MiB (10%)


Трекер:  [ 20-Фев-2014 21:30 ]

  

Скачать .torrent

Размер .torrent файла 20 KB


Размер: 1.96 GB
Хэш (hash) релиза: 8046f02a9d2f72eb397a272295ea2f0c938a271d
Подписка на обновления:

Еще никто не оставлял запись к записи скачать торрент XXII Зимние Олимпийские Игры 2014. Керлинг. Женщины. Матч за 3-е место. Великобритания - Швейцария Россия 2 . Будь первым!

!Обратная связь