Скачать через торрент XXII Зимние Олимпийские Игры 2014. Ски-кросс. Мужчины. Квалификация Первый Канал HD Фильм бесплатно в хорошем качестве torrent

Скачивайте на UnionPeer.org фильмы через торрент без регистрации. Новинки кино в хорошем качестве через торрент. На UnionPeer.org можно скачать через торрент фильмы 2014 и 2015 годов. Самые новые фильмы.

Скачать торрент XXII Зимние Олимпийские Игры 2014. Ски-кросс. Мужчины. Квалификация Первый Канал HD бесплатно через .torrent фильм мультфильм сериал

Если у вас наблюдаются проблемы со скриншотами, переходом по ссылками, скачиванием торрентов - проблемы в блокировщике рекламы AdBlock. #хорошегоДня!


Статистика раздачи
Размер:  4.39 GB   |    Зарегистрирован:  3 года 8 месяцев   |    .torrent скачан:  25 раз   |   
Раздают:  1  
   
Загрузка...
 
Автор Сообщение

Galfimbul

avatar Galfimbul


XXII Зимние Олимпийские Игры 2014. Ски-кросс. Мужчины. Квалификация

Вид спорта: Фристайл
Комментарий: Профессиональный
Язык комментариев: Русский
Описание: XXII Зимние Олимпийские Игры 2014. Ски-кросс. Мужчины. Квалификация.

Из-за выпуска новостей, прервавшего трансляцию, выпали старты участников с номерами 9-16.

Автор рипа: sanchez2011

Качество: HDTV
Формат: MPEG-TS
Видео кодек: AVC
Аудио кодек: MP2
Видео: MPEG4 Video (H264) 1920x1080 12.9Mbps 25fps
Аудио: MPEG Audio 48000Hz stereo 192kbps
Все результаты соревнований

Продолжительность: 00:45:36
GeneralID : 1 (0x1)Complete name : E:\Олимпиада 2014\XXII Зимние Олимпийские Игры 2014. 20.02.2014 Ски-кросс. Мужчины. Квалификация.tsFormat : MPEG-TSFile size : 4.39 GiBDuration : 45mn 36sOverall bit rate mode : VariableOverall bit rate : 13.8 Mbps

VideoID : 2141 (0x85D)Menu ID : 1 (0x1)Format : AVCFormat/Info : Advanced Video CodecFormat profile : Main@L4.0Format settings, CABAC : YesFormat settings, ReFrames : 3 framesCodec ID : 27Duration : 45mn 36sBit rate : 12.9 MbpsWidth : 1 920 pixelsHeight : 1 080 pixelsDisplay aspect ratio : 16:9Frame rate : 25.000 fpsStandard : ComponentColor space : YUVChroma subsampling : 4:2:0Bit depth : 8 bitsScan type : InterlacedScan order : Top Field FirstBits/(Pixel*Frame) : 0.249Stream size : 4.11 GiB (94%)Color primaries : BT.709Transfer characteristics : BT.709Matrix coefficients : BT.709

AudioID : 2142 (0x85E)Menu ID : 1 (0x1)Format : MPEG AudioFormat version : Version 1Format profile : Layer 2Codec ID : 3Duration : 45mn 36sBit rate mode : ConstantBit rate : 192 KbpsChannel(s) : 2 channelsSampling rate : 48.0 KHzCompression mode : LossyStream size : 62.6 MiB (1%)Language : Russian


Трекер:  [ 20-Фев-2014 16:26 ]

  

Скачать .torrent

Размер .torrent файла 22 KB


Размер: 4.39 GB
Хэш (hash) релиза: a0b7b034fb826b3642e9465a547b9f8cf31c7f3a
Подписка на обновления:

Торренты, похожие на XXII Зимние Олимпийские Игры 2014. Ски-кросс. Мужчины. Квалификация Первый Канал HD скачать торрент

Форум Название Автор Размер S L Добавлен
Зимние Олимпийские игры в Сочи 2014 ·· XXII Зимние Олимпийские Игры 2014. Ски-кросс. Мужчины. Квалификация / Первый Канал HD [20.02.2014 г., Фристайл, HDTVRip, MKV, 400p] Galfimbul 452871694432 MB 0 0 1392902795

16:26

20-Фев-14

Еще никто не оставлял запись к записи скачать торрент XXII Зимние Олимпийские Игры 2014. Ски-кросс. Мужчины. Квалификация Первый Канал HD . Будь первым!

!Обратная связь